<?xml version="1.0" standalone="no"?>
<!DOCTYPE svg PUBLIC "-//W3C//DTD SVG 1.1//EN" "http://www.w3.org/Graphics/SVG/1.1/DTD/svg11.dtd" >
<svg>
<metadata>
Created by FontForge 20090914 at Thu Mar 30 11:07:30 2017
 By www-data
U^
</metadata>
<defs>
<font id="MWGHeadline" horiz-adv-x="600" >
  <font-face 
    font-family="MWGHeadline"
    font-weight="500"
    font-stretch="normal"
    units-per-em="1000"
    panose-1="2 0 6 3 0 0 0 0 0 0"
    ascent="905"
    descent="-95"
    cap-height="790"
    bbox="-9.75424 -195 699 1034.02"
    underline-thickness="0"
    underline-position="0"
    unicode-range="U+0020-U+2019"
  />
<missing-glyph horiz-adv-x="500" 
 />
    <glyph glyph-name=".notdef" horiz-adv-x="500" 
 />
    <glyph glyph-name="space" unicode=" " horiz-adv-x="400" 
 />
    <glyph glyph-name="exclam" unicode="!" horiz-adv-x="256" 
d="M127 0c-9.33301 0 -18 3.16699 -26 9.5s-12 15.833 -12 28.5v80c0 25.333 12.667 38 38 38c9.33301 0 18 -3.16699 26 -9.5s12 -15.833 12 -28.5v-80c0 -25.333 -12.667 -38 -38 -38zM128 216c-9.33301 0 -18 3.16699 -26 9.5s-12 15.833 -12 28.5v498
c0 25.333 12.667 38 38 38c9.33301 0 18 -3.16699 26 -9.5s12 -15.833 12 -28.5v-498c0 -25.333 -12.667 -38 -38 -38z" />
    <glyph glyph-name="dollar" unicode="$" horiz-adv-x="616" 
 />
    <glyph glyph-name="percent" unicode="%" horiz-adv-x="737" 
d="M135 17c-8.66699 -12 -19.665 -17.334 -32.998 -16.001s-22.5 7.33301 -27.5 18s-4.16699 22.334 2.5 35.001l526 754c13.333 20 29.666 23.333 48.999 10c7.33301 -4.66699 12.166 -11 14.499 -19s0.5 -17.333 -5.5 -28zM641.002 27.999
c-19.333 -14.667 -41.668 -22 -67.001 -22c-34.667 0 -62.667 13.333 -84 40c-15.333 18.667 -23 40.334 -23 65.001v194c0 29.333 10.5 54.166 31.5 74.499s46.167 30.5 75.5 30.5c34.667 0 62.334 -13 83.001 -39c16 -18 24 -40 24 -66v-194
c0 -34 -13.333 -61.667 -40 -83zM620 298.999c0 12 -4.33301 22.167 -13 30.5s-19 12.5 -31 12.5c-12.667 0 -23.167 -4.16699 -31.5 -12.5s-12.5 -18.5 -12.5 -30.5v-188c0 -12 4.33301 -22.333 13 -31s19 -13 31 -13s22.333 4.33301 31 13s13 19 13 31v188zM232 439.999
c-18 -14.667 -40 -22 -66 -22c-34 0 -62.333 13.333 -85 40c-14.667 17.333 -22 39 -22 65v194c0 28.667 10.5 53.167 31.5 73.5s46.167 30.5 75.5 30.5c34 0 61.667 -12.667 83 -38c16 -18 24 -40 24 -66v-194c0 -34 -13.667 -61.667 -41 -83zM211 709.999
c0 12 -4.16699 22.167 -12.5 30.5s-18.833 12.5 -31.5 12.5c-12 0 -22.333 -4.16699 -31 -12.5s-13 -18.5 -13 -30.5v-188c0 -12 4.33301 -22.167 13 -30.5s19 -12.5 31 -12.5c12.667 0 23.167 4.16699 31.5 12.5s12.5 18.5 12.5 30.5v188z" />
    <glyph glyph-name="parenleft" unicode="(" horiz-adv-x="423" 
d="M168 398c0 -83.333 17.001 -163.667 51.001 -241c23.333 -51.333 58.333 -103.666 105 -156.999c6.66699 -10 6 -19.667 -2 -29l-29 -23c-10 -8.66699 -20 -8 -30 2c-56 63.333 -100 137 -132 221c-27.333 73.333 -41 149.333 -41 228c0 83.333 15.667 165 47 245
c29.333 77.333 72.666 146.666 129.999 207.999c11.333 12 27.333 7.66699 48 -13l9 -9c10.667 -9.33301 11.667 -19 3 -29c-106 -122.667 -159 -257 -159 -403z" />
    <glyph glyph-name="parenright" unicode=")" horiz-adv-x="422" 
d="M291 171c-32 -84 -75.999 -157.667 -131.999 -221c-10 -10 -20 -10.667 -30 -2l-29 23c-8 9.33301 -8.66699 19 -2 29c46.667 53.333 81.667 105.666 105 156.999c34 77.333 51 157.666 51 240.999c0 147.333 -53 281.666 -159 402.999
c-11.333 12.667 -5 27.334 19 44.001c5.33301 4 9 6.66699 11 8c11.333 8.66699 21.333 8.33398 30 -0.999023c57.333 -61.333 100.666 -130.666 129.999 -207.999c31.333 -80 47 -161.667 47 -245c0 -78.667 -13.667 -154.667 -41 -228z" />
    <glyph glyph-name="plus" unicode="+" horiz-adv-x="660" 
d="M530 351l-171 9l9 -167c0.666992 -11.333 -3.16602 -20.5 -11.499 -27.5s-17.166 -10.5 -26.499 -10.5c-11.333 0 -20.666 3.83301 -27.999 11.5s-10.666 16.5 -9.99902 26.5l9 167l-171 -9c-13.333 -0.666992 -23.333 2.83301 -30 10.5s-10 16.167 -10 25.5
c0 12 4.16699 21.167 12.5 27.5s17.5 9.16602 27.5 8.49902l171 -9l-9 167c-0.666992 11.333 3.16602 20.5 11.499 27.5s17.166 10.5 26.499 10.5c11.333 0 20.666 -3.83301 27.999 -11.5s10.666 -16.5 9.99902 -26.5l-9 -167l171 9
c13.333 0.666992 23.333 -2.83301 30 -10.5s10 -16.167 10 -25.5c0 -12 -4.16699 -21.167 -12.5 -27.5s-17.5 -9.16602 -27.5 -8.49902z" />
    <glyph glyph-name="comma" unicode="," horiz-adv-x="291" 
d="M142 -141c-9.33301 0 -18 3 -26 9s-12 15 -12 27v207c0 24 12.667 36 38 36c9.33301 0 18 -3 26 -9s12 -15 12 -27v-207c0 -24 -12.667 -36 -38 -36z" />
    <glyph glyph-name="hyphen" unicode="-" horiz-adv-x="440" 
d="M340 381h-242c-30.667 0 -46 12.667 -46 38c0 9.33301 4 18 12 26s19.333 12 34 12h242c31.333 0 47 -12.667 47 -38c0 -10 -4.16699 -18.833 -12.5 -26.5s-19.833 -11.5 -34.5 -11.5z" />
    <glyph glyph-name="period" unicode="." horiz-adv-x="418" 
d="M209 218c28 0 53.167 -9.83301 75.5 -29.5s33.5 -46.167 33.5 -79.5c0 -28 -9.83301 -53.167 -29.5 -75.5s-46.167 -33.5 -79.5 -33.5c-28 -0 -53.167 9.83301 -75.5 29.5s-33.5 46.167 -33.5 79.5c0 28 9.83301 53.167 29.5 75.5s46.167 33.5 79.5 33.5z" />
    <glyph glyph-name="slash" unicode="/" 
d="M98 0c-8 -12.667 -18.5 -18.333 -31.5 -17s-22.167 7.33301 -27.5 18s-5 22.667 1 36l440 742c12.667 20.667 29 24 49 10c17.333 -11.333 20.333 -27 9 -47z" />
    <glyph glyph-name="zero" unicode="0" 
d="M430 43c-36.667 -28.667 -79.999 -43.001 -129.999 -43.001c-68 0 -123.333 26 -166 78c-29.333 35.333 -44 78 -44 128v380c0 57.333 20.5 105.833 61.5 145.5s90.5 59.5 148.5 59.5c65.333 0 119.666 -25 162.999 -75c31.333 -37.333 47 -80.666 47 -129.999v-380
c0 -66.667 -26.667 -121 -80 -163zM435.001 585.999c0 36.667 -13.167 67.834 -39.5 93.501s-58.166 38.5 -95.499 38.5s-69.166 -12.833 -95.499 -38.5s-39.5 -56.834 -39.5 -93.501v-380c0 -36.667 13.167 -68 39.5 -94s58.166 -39 95.499 -39s69.166 13 95.499 39
s39.5 57.333 39.5 94v380z" />
    <glyph glyph-name="one" unicode="1" horiz-adv-x="465" 
d="M84 605c-9.33301 -3.33301 -16.1699 -9.17188 -20.5029 -17.5049s-5.16602 -17.166 -2.49902 -26.499s8.33398 -16.166 17.001 -20.499s17.334 -5.16602 26.001 -2.49902c45.333 11.333 103 51.333 173 120v-619c0 -10 3.16699 -18.833 9.5 -26.5
s15.166 -11.5 26.499 -11.5c8 0 16 2.66699 24 8s13 14.333 15 27v711c0 10.667 -3.66699 19.5 -11 26.5s-16 10.5 -26 10.5c-15.333 0 -28.333 -7.33301 -39 -22l-43 -43l-42 -41.5c-8 -7.66699 -19.167 -17.667 -33.5 -30s-27.166 -21.666 -38.499 -27.999
s-23 -11.166 -35 -14.499z" />
    <glyph glyph-name="two" unicode="2" horiz-adv-x="601" 
d="M491 0l-362.002 0.00195312c-12 0 -21.5 3.83301 -28.5 11.5s-10.5 16.5 -10.5 26.5v24c0 85.333 24.333 160.666 73 225.999s111 115.333 187 150c28.667 13.333 50.167 33.333 64.5 60s21.5 55.334 21.5 86.001c0 38.667 -12.833 70.5 -38.5 95.5
s-57.5 37.5 -95.5 37.5c-30 0 -57.167 -8.83301 -81.5 -26.5s-40.833 -41.167 -49.5 -70.5c-3.33301 -10.667 -9.83301 -18.334 -19.5 -23.001s-20.167 -5 -31.5 -1c-20 9.33301 -27 24.666 -21 45.999c14 47.333 39.667 83.833 77 109.5s79.333 38.5 126 38.5
c57.333 0 107 -19.667 149 -59c40 -38.667 60 -88.334 60 -149.001c0 -50 -12.167 -92.833 -36.5 -128.5s-57.166 -63.5 -98.499 -83.5c-75.333 -37.333 -130.666 -85.666 -165.999 -144.999c-28.667 -48 -43.667 -99 -45 -153l328 1c12 0 21.5 -3.83301 28.5 -11.5
s10.5 -16.167 10.5 -25.5c0 -12 -4.5 -21 -13.5 -27s-18.167 -9 -27.5 -9z" />
    <glyph glyph-name="three" unicode="3" horiz-adv-x="599" 
d="M502 701l-168.999 -138.999c56 -10 101 -36.5 135 -79.5s51 -90.833 51 -143.5c0 -79.333 -36.5 -152 -109.5 -218s-161.833 -106.667 -266.5 -122c-17.333 -0.666992 -29.5 4 -36.5 14s-8.16699 20.833 -3.5 32.5s13 19.167 25 22.5
c81.333 12 153.166 46.333 215.499 103s93.5 112 93.5 166c0 46.667 -15 84.5 -45 113.5s-65.667 43.5 -107 43.5c-18 0 -35.333 -3.33301 -52 -10c-17.333 -8 -32.333 -4.66699 -45 10c-13.333 20.667 -11.333 38 6 52l209 169h-264c-24.667 0 -37.667 12 -39 36
c-0.666992 11.333 2.5 20.333 9.5 27s16.833 10 29.5 10h334c14 0 25.667 -4.83301 35 -14.5s14 -20.834 14 -33.501c0 -15.333 -6.66699 -28.333 -20 -39z" />
    <glyph glyph-name="four" unicode="4" 
d="M473 0l-164.001 -0.000976562c-12.667 0 -22.334 3.83301 -29.001 11.5s-10 16.167 -10 25.5c0 12.667 4.33301 21.834 13 27.501s17.334 8.5 26.001 8.5h126v132h-303c-13.333 0 -23.666 3.83301 -30.999 11.5s-11 16.167 -11 25.5c0 8 3 16 9 24l338 508
c8 12 20 18 36 18c12.667 0 22 -4.16699 28 -12.5s9 -16.833 9 -25.5v-714c0 -12 -3.83301 -21.667 -11.5 -29s-16.167 -11 -25.5 -11zM434.999 640.999l-240 -363h240v363z" />
    <glyph glyph-name="five" unicode="5" horiz-adv-x="602" 
d="M483 715l-298.998 -0.000976562v-174c30.667 17.333 64.667 26 102 26c68 0 123.833 -23 167.5 -69s65.5 -99 65.5 -159c0 -79.333 -36.5 -152 -109.5 -218s-161.833 -106.667 -266.5 -122c-17.333 -0.666992 -29.5 4 -36.5 14s-8.16699 20.833 -3.5 32.5
s13 19.167 25 22.5c81.333 12 153.166 46.333 215.499 103s93.5 112 93.5 166c0 46.667 -15 84.5 -45 113.5s-65.667 43.5 -107 43.5c-47.333 0 -86.666 -19.667 -117.999 -59c-13.333 -22 -30.333 -26.333 -51 -13c-10 6.66699 -15 16.667 -15 30v298
c0 12.667 4.16699 22.167 12.5 28.5s17.166 9.5 26.499 9.5h343c12 0 21.667 -3.5 29 -10.5s10.666 -15.833 9.99902 -26.5c-0.666992 -11.333 -4.66699 -20.166 -12 -26.499s-16.333 -9.5 -27 -9.5z" />
    <glyph glyph-name="six" unicode="6" horiz-adv-x="604" 
d="M449 238l0.00390625 -22c0 -38.667 -13.833 -72.667 -41.5 -102s-63.834 -44 -108.501 -44c-42.667 0 -79.834 14 -111.501 42s-47.5 62.667 -47.5 104v22c0 40 15.167 74.333 45.5 103s68.166 43 113.499 43c41.333 0 76.666 -13.5 105.999 -40.5s44 -62.167 44 -105.5z
M61.0039 220c0 -64 23.334 -117.167 70.001 -159.5s102.334 -63.5 167.001 -63.5c63.333 0 116.666 21.833 159.999 65.5s65 96.167 65 157.5v21c0 61.333 -21.833 113.5 -65.5 156.5s-97.167 64.5 -160.5 64.5c-42 0 -81.333 -12.667 -118 -38
c3.33301 37.333 36.333 91.833 99 163.5s125.667 117.5 189 137.5c8.66699 4.66699 14.167 11.5 16.5 20.5s1.16602 17.833 -3.50098 26.5s-11.5 14.334 -20.5 17.001s-17.833 1.66699 -26.5 -3c-61.333 -15.333 -122.5 -54 -183.5 -116s-109.5 -134.833 -145.5 -218.5
s-50.333 -160.834 -43 -231.501z" />
    <glyph glyph-name="seven" unicode="7" 
d="M338 24c-6 -24 -18.668 -36.001 -38.001 -36.001c-24.667 0 -37.667 13 -39 39l163 678h-259v-123c0 -12 -3.83301 -21.333 -11.5 -28s-16.5 -10 -26.5 -10c-12 0 -21.167 4 -27.5 12s-9.5 16.667 -9.5 26v160c0 12.667 4.33301 21.834 13 27.501s17.334 8.5 26.001 8.5
h342c26 0 39 -13 39 -39z" />
    <glyph glyph-name="eight" unicode="8" 
d="M304 1c-54 0 -100.999 15.333 -140.999 46c-57.333 46 -86 104.333 -86 175v41c0 38 11.667 74.833 35 110.5s51 60.834 83 75.501c-49.333 35.333 -74 82.666 -74 141.999v20c0 46.667 17 88.334 51 125.001s78 55 132 55c44.667 0 85 -15.333 121 -46
c40.667 -34.667 61 -79.334 61 -134.001v-20c0 -58.667 -24.333 -105.667 -73 -141c33.333 -14 61.166 -39.333 83.499 -76s33.5 -73.667 33.5 -111v-41c0 -61.333 -21.833 -113.5 -65.5 -156.5s-97.167 -64.5 -160.5 -64.5zM412.001 612
c0 30.667 -10.501 56.333 -31.501 77s-46.5 31 -76.5 31c-31.333 0 -57.333 -10.5 -78 -31.5s-31 -46.5 -31 -76.5v-19c0 -30 10.667 -55.167 32 -75.5s47 -30.5 77 -30.5c32.667 0 58.834 10.667 78.501 32s29.5 46 29.5 74v19zM454 262.999
c0 43.333 -14.6699 78.5 -44.0029 105.5s-64.666 40.5 -105.999 40.5c-45.333 0 -81.666 -14.167 -108.999 -42.5s-41 -62.833 -41 -103.5v-42c0 -41.333 14.5 -76 43.5 -104s64.5 -42 106.5 -42c44.667 0 80.834 14.667 108.501 44s41.5 63.333 41.5 102v42z" />
    <glyph glyph-name="nine" unicode="9" horiz-adv-x="604" 
d="M149 552l-0.00390625 22c0 38.667 13.833 72.667 41.5 102s63.834 44 108.501 44c42.667 0 79.834 -14 111.501 -42s47.5 -62.667 47.5 -104v-22c0 -40 -15.167 -74.333 -45.5 -103s-68.166 -43 -113.499 -43c-41.333 0 -76.666 13.5 -105.999 40.5s-44 62.167 -44 105.5
zM536.996 570c0 64 -23.3311 117.334 -69.998 160.001s-102.334 64 -167.001 64c-62.667 0 -115.834 -22 -159.501 -66s-65.5 -96.667 -65.5 -158v-21c0 -61.333 21.833 -113.5 65.5 -156.5s97.167 -64.5 160.5 -64.5c36 0 72.667 13 110 39
c2.66699 -34 -27.333 -87.667 -90 -161s-126 -120.333 -190 -141c-8.66699 -4.66699 -14.167 -11.334 -16.5 -20.001s-1.16602 -17.334 3.50098 -26.001s11.5 -14.5 20.5 -17.5s17.5 -2.16699 25.5 2.5c61.333 15.333 122.666 54 183.999 116s110 134.833 146 218.5
s50.333 160.834 43 231.501z" />
    <glyph glyph-name="colon" unicode=":" horiz-adv-x="418" 
d="M209 218c28 0 53.167 -9.83301 75.5 -29.5s33.5 -46.167 33.5 -79.5c0 -28 -9.83301 -53.167 -29.5 -75.5s-46.167 -33.5 -79.5 -33.5c-28 -0 -53.167 9.83301 -75.5 29.5s-33.5 46.167 -33.5 79.5c0 28 9.83301 53.167 29.5 75.5s46.167 33.5 79.5 33.5zM209 551
c28 0 53.167 -9.83301 75.5 -29.5s33.5 -46.167 33.5 -79.5c0 -28 -9.83301 -53.167 -29.5 -75.5s-46.167 -33.5 -79.5 -33.5c-28 0 -53.167 9.83301 -75.5 29.5s-33.5 46.167 -33.5 79.5c0 28 9.83301 53.167 29.5 75.5s46.167 33.5 79.5 33.5z" />
    <glyph glyph-name="semicolon" unicode=";" horiz-adv-x="291" 
d="M142 -141c-9.33301 0 -18 3 -26 9s-12 15 -12 27v207c0 24 12.667 36 38 36c9.33301 0 18 -3 26 -9s12 -15 12 -27v-207c0 -24 -12.667 -36 -38 -36zM142 197c-9.33301 0 -18 3.16699 -26 9.5s-12 15.833 -12 28.5v70c0 25.333 12.667 38 38 38
c9.33301 0 18 -3.16699 26 -9.5s12 -15.833 12 -28.5v-70c0 -25.333 -12.667 -38 -38 -38z" />
    <glyph glyph-name="equal" unicode="=" horiz-adv-x="536" 
d="M409 284h-279c-30.667 0 -46 12.667 -46 38c0 9.33301 4 18 12 26s19.333 12 34 12h279c31.333 0 47 -12.667 47 -38c0 -10 -4.16699 -18.833 -12.5 -26.5s-19.833 -11.5 -34.5 -11.5zM409 478h-279c-30.667 0 -46 12.667 -46 38c0 9.33301 4 18 12 26s19.333 12 34 12
h279c31.333 0 47 -12.667 47 -38c0 -10 -4.16699 -18.833 -12.5 -26.5s-19.833 -11.5 -34.5 -11.5z" />
    <glyph glyph-name="question" unicode="?" horiz-adv-x="520" 
d="M286 292c-0.666992 24 5.50098 46.5 18.501 67.5s30.5 37.167 52.5 48.5c74.667 36.667 112 95.667 112 177c0 64.667 -25.667 117.667 -77 159c-36.667 30.667 -81 46 -133 46c-50 0 -93.167 -14 -129.5 -42s-60.833 -63.333 -73.5 -106
c-2.66699 -9.33301 -2 -18.5 2 -27.5s10.333 -15.5 19 -19.5c20.667 -7.33301 38.667 2.66699 54 30c1.33301 2.66699 3.5 6.66699 6.5 12s5.16699 9.33301 6.5 12c26.667 45.333 65 68 115 68c37.333 0 69.5 -13 96.5 -39s40.5 -57 40.5 -93c0 -50 -23.667 -87 -71 -111
c-34.667 -16.667 -62.334 -41.167 -83.001 -73.5s-31 -68.5 -31 -108.5v-41v-16c0 -12.667 4 -22.167 12 -28.5s16.667 -9.5 26 -9.5c25.333 0 38 12.667 38 38v18zM247.001 -3c-9.33301 0 -18 3.16699 -26 9.5s-12 15.833 -12 28.5v60c0 25.333 12.667 38 38 38
c9.33301 0 18 -3.16699 26 -9.5s12 -15.833 12 -28.5v-60c0 -25.333 -12.667 -38 -38 -38z" />
    <glyph glyph-name="at" unicode="@" 
 />
    <glyph glyph-name="A" unicode="A" horiz-adv-x="601" 
d="M482 -1c-12.667 -2.66699 -22.833 -1.00098 -30.5 4.99902s-12.5 13 -14.5 21l-32 134h-209l-31 -134c-7.33301 -21.333 -23 -29.666 -47 -24.999c-23.333 5.33301 -32 20.333 -26 45l164 690c4.66699 21.333 18.667 32 42 32h6c12 0 21.333 -3.33301 28 -10
s11 -14 13 -22l164 -690c6 -24.667 -3 -40 -27 -46zM301.001 595.999l-87 -364h174z" />
    <glyph glyph-name="B" unicode="B" horiz-adv-x="601" 
d="M435 58c-44 -38.667 -96.334 -58 -157.001 -58h-149c-11.333 -0 -20.666 3.33301 -27.999 10s-11 15.334 -11 26.001c0 11.333 3.83301 20.333 11.5 27s16.834 10 27.501 10h10v645h-11c-11.333 0 -20.5 3.66699 -27.5 11s-10.5 15.666 -10.5 24.999
c0 12 4.16699 21 12.5 27s17.166 9 26.499 9h155c60 0 110.167 -20.167 150.5 -60.5s60.5 -88.5 60.5 -144.5c0 -73.333 -30.333 -129.333 -91 -168c34 -21.333 60.333 -48.5 79 -81.5s28 -69.5 28 -109.5c0 -67.333 -25.333 -123.333 -76 -168zM282.999 716l-69 1v-263h70
c38.667 0 71 13 97 39s39 56.667 39 92c0 38 -13.833 69.167 -41.5 93.5s-59.5 36.833 -95.5 37.5zM277.999 380l-64 -0.000976562v-307h64c47.333 0 85.5 15.333 114.5 46s43.5 66.334 43.5 107.001c0 42.667 -15 79 -45 109s-67.667 45 -113 45z" />
    <glyph glyph-name="C" unicode="C" 
d="M430 36c-36.667 -28.667 -80.001 -42.9971 -130.001 -42.9971c-68 0 -123.333 26 -166 78c-29.333 35.333 -44 77.666 -44 126.999v380c0 57.333 20.5 105.666 61.5 144.999s90.5 59 148.5 59c58.667 0 108.334 -19.833 149.001 -59.5s61 -87.834 61 -144.501
c0 -12 -3.33301 -21.333 -10 -28s-15.667 -10 -27 -10s-20.5 3.83301 -27.5 11.5s-10.5 16.5 -10.5 26.5c0 36.667 -13.167 67.834 -39.5 93.501s-58.166 38.5 -95.499 38.5s-69.166 -12.833 -95.499 -38.5s-39.5 -56.834 -39.5 -93.501v-380
c0 -38 13.167 -70.167 39.5 -96.5s58.166 -39.5 95.499 -39.5s69.166 13.167 95.499 39.5s39.5 58.5 39.5 96.5c0 10.667 4 19.334 12 26.001s16.667 10 26 10c11.333 0 20.333 -3.33301 27 -10s10 -15.334 10 -26.001c0 -66 -26.667 -120 -80 -162z" />
    <glyph glyph-name="D" unicode="D" 
d="M449 63c-42.667 -42 -93.999 -63 -153.999 -63h-166c-12 0 -21.5 3.66699 -28.5 11s-10.5 15.666 -10.5 24.999c0 12 4.16699 21.167 12.5 27.5s17.166 9.5 26.499 9.5h10v644h-10c-12.667 0 -22.334 3.83301 -29.001 11.5s-10 16.167 -10 25.5
c0 12.667 4.33301 21.834 13 27.501s17.334 8.5 26.001 8.5h166c60 0 110.833 -20.167 152.5 -60.5s62.5 -88.5 62.5 -144.5v-380c0 -54 -20.333 -101.333 -61 -142zM435.001 585c0 36.667 -13.167 67.833 -39.5 93.5s-58.166 38.5 -95.499 38.5h-86v-645l86 1
c37.333 0.666992 69.166 13.667 95.499 39s39.5 56.333 39.5 93v380z" />
    <glyph glyph-name="E" unicode="E" 
d="M471 0h-342.003c-12 0 -21.5 3.66699 -28.5 11s-10.5 15.666 -10.5 24.999v718c0 12.667 4.33301 21.834 13 27.501s17.334 8.5 26.001 8.5h342c12 0 21.5 -3.66699 28.5 -11s10.5 -15.666 10.5 -24.999c0 -12 -4.16699 -21.167 -12.5 -27.5s-17.166 -9.5 -26.499 -9.5
h-306v-263h216c12 0 21.5 -3.66699 28.5 -11s10.5 -16 10.5 -26c0 -12 -4.16699 -21.167 -12.5 -27.5s-17.166 -9.5 -26.499 -9.5h-216v-307h306c12.667 0 22.334 -3.83301 29.001 -11.5s10 -16.167 10 -25.5c0 -12.667 -4.33301 -21.834 -13 -27.501
s-17.334 -8.5 -26.001 -8.5z" />
    <glyph glyph-name="F" unicode="F" 
d="M473 558c-25.333 0 -38.002 12.3311 -38.002 36.998v124h-270v-264l216 1c12 0 21.5 -3.66699 28.5 -11s10.5 -16 10.5 -26c0 -12 -4.16699 -21.167 -12.5 -27.5s-17.166 -9.5 -26.499 -9.5h-216v-344c0 -11.333 -3.66699 -20.5 -11 -27.5s-16.333 -10.5 -27 -10.5
c-24.667 0 -37 12.667 -37 38v718c0 12.667 4.33301 21.834 13 27.501s17.334 8.5 26.001 8.5h342c12 0 21.5 -3.66699 28.5 -11s10.5 -15.666 10.5 -24.999v-160c0 -12 -3.33301 -21.333 -10 -28s-15.667 -10 -27 -10z" />
    <glyph glyph-name="G" unicode="G" 
d="M510 351c10 1.33301 17.665 5.83203 22.998 13.499s8 15.167 8 22.5c0 10.667 -3.5 19.5 -10.5 26.5s-15.833 10.5 -26.5 10.5h-63h-117c-10.667 0 -19.5 -3.5 -26.5 -10.5s-10.5 -15.833 -10.5 -26.5c0 -8 3 -16.167 9 -24.5s15.333 -12.5 28 -12.5l111 1v-148
c0 -35.333 -12.667 -66.166 -38 -92.499s-57.666 -39.5 -96.999 -39.5c-36 0 -67.5 12.667 -94.5 38s-40.5 56.666 -40.5 93.999v383c0 35.333 12.667 66.166 38 92.499s57.666 39.5 96.999 39.5c36.667 0 68.334 -12.5 95.001 -37.5s40 -56.5 40 -94.5
c0 -9.33301 3.33301 -18.166 10 -26.499s16 -12.5 28 -12.5c10 0 18.667 3.5 26 10.5s11 16.5 11 28.5c0.666992 48 -15 91.333 -47 130c-43.333 50 -97.666 75 -162.999 75c-52 0 -96.333 -15.333 -133 -46c-51.333 -41.333 -77 -94.333 -77 -159v-383
c0 -49.333 14.667 -91.666 44 -126.999c44 -52 99.333 -78 166 -78c66 0 121 26 165 78c28 34 42.667 76.333 44 127l1 56v92z" />
    <glyph glyph-name="H" unicode="H" 
d="M473 0c-9.33301 0 -18 3.16699 -26 9.5s-12 15.833 -12 28.5v342h-270v-342c0 -9.33301 -3.16699 -18 -9.5 -26s-15.833 -12 -28.5 -12c-10 -0 -18.667 3.33301 -26 10s-11 16 -11 28v714c0 8.66699 3 17.167 9 25.5s15.333 12.5 28 12.5c9.33301 0 18 -3.16699 26 -9.5
s12 -15.833 12 -28.5v-298h270v298c0 9.33301 3.16699 18 9.5 26s15.833 12 28.5 12c10 0 18.667 -3.33301 26 -10s11 -16 11 -28v-714c0 -8.66699 -3 -17.167 -9 -25.5s-15.333 -12.5 -28 -12.5z" />
    <glyph glyph-name="I" unicode="I" horiz-adv-x="256" 
d="M128 0c-9.33301 0 -18 3.16699 -26 9.5s-12 15.833 -12 28.5v714c0 25.333 12.667 38 38 38c9.33301 0 18 -3.16699 26 -9.5s12 -15.833 12 -28.5v-714c0 -25.333 -12.667 -38 -38 -38z" />
    <glyph glyph-name="J" unicode="J" 
d="M430 43c-36.667 -28.667 -79.9971 -43 -129.997 -43c-58.667 -0 -108.334 19.833 -149.001 59.5s-61 88.167 -61 145.5v44c0 11.333 3.33301 20.5 10 27.5s15.667 10.5 27 10.5s20.5 -3.83301 27.5 -11.5s10.5 -16.5 10.5 -26.5v-44
c0 -36.667 13.167 -67.834 39.5 -93.501s58.166 -38.5 95.499 -38.5s69.166 12.833 95.499 38.5s39.5 56.834 39.5 93.501v547c0 12.667 4 22.167 12 28.5s16.667 9.5 26 9.5c12.667 0 22 -4.16699 28 -12.5s9 -16.833 9 -25.5v-547c0 -66 -26.667 -120 -80 -162z" />
    <glyph glyph-name="K" unicode="K" horiz-adv-x="601" 
d="M491 2c-12 -4 -22.833 -3.83301 -32.5 0.5s-16.167 10.833 -19.5 19.5l-206 402l-68 -76v-310c0 -12.667 -4 -22.167 -12 -28.5s-16.667 -9.5 -26 -9.5c-12.667 0 -22 4.16699 -28 12.5s-9 16.833 -9 25.5v714c0 12 3.66699 21.333 11 28s16 10 26 10
c12.667 0 22.167 -4 28.5 -12s9.5 -16.667 9.5 -26v-290l278 314c13.333 15.333 31.666 18.333 54.999 9c8.66699 -9.33301 12.834 -19.5 12.501 -30.5s-4.5 -19.833 -12.5 -26.5l-214 -244l221 -429c6 -8 7.83301 -17.333 5.5 -28s-8.83301 -19 -19.5 -25z" />
    <glyph glyph-name="L" unicode="L" 
d="M471 0l-341.999 0.000976562c-26 0 -39 12.667 -39 38v714c0 12 3.66699 21.333 11 28s16 10 26 10c12.667 0 22.167 -4 28.5 -12s9.5 -16.667 9.5 -26v-679l270 -1v124c0 12 3.83301 21.333 11.5 28s16.5 10 26.5 10c12 0 21.167 -4 27.5 -12s9.5 -16.667 9.5 -26v-160
c0 -12.667 -4.33301 -21.834 -13 -27.501s-17.334 -8.5 -26.001 -8.5z" />
    <glyph glyph-name="M" unicode="M" 
d="M473 0c-9.33301 0 -18 3.16699 -26 9.5s-12 15.833 -12 28.5v525l-95 -226c-9.33301 -22 -22.666 -33 -39.999 -33s-30.666 11 -39.999 33l-95 227v-526c0 -9.33301 -3.16699 -18 -9.5 -26s-15.833 -12 -28.5 -12c-10 -0 -18.667 3.33301 -26 10s-11 16 -11 28v714
c0 8.66699 3 17.167 9 25.5s15.333 12.5 28 12.5c15.333 0 27.666 -10.667 36.999 -32l137 -323l135 323c9.33301 21.333 21.666 32 36.999 32c24.667 0 37 -12.667 37 -38v-714c0 -8.66699 -3 -17.167 -9 -25.5s-15.333 -12.5 -28 -12.5z" />
    <glyph glyph-name="N" unicode="N" 
d="M440 21l-275 559v-543c0 -12.667 -4 -22.167 -12 -28.5s-16.667 -9.5 -26 -9.5c-12.667 0 -22 4.16699 -28 12.5s-9 16.833 -9 25.5v714c0 12 3.66699 21.333 11 28s16 10 26 10s17.333 -2.5 22 -7.5s9.66699 -13.167 15 -24.5l271 -551v546
c-1.33301 10 1.66699 18.667 9 26s17 11 29 11c12.667 0 22 -4.16699 28 -12.5s9 -16.833 9 -25.5v-714c0 -21.333 -9.5 -33.833 -28.5 -37.5s-32.833 3.5 -41.5 21.5z" />
    <glyph glyph-name="O" unicode="O" 
d="M430 43c-36.667 -28.667 -79.999 -43.001 -129.999 -43.001c-68 0 -123.333 26 -166 78c-29.333 35.333 -44 78 -44 128v380c0 57.333 20.5 105.833 61.5 145.5s90.5 59.5 148.5 59.5c65.333 0 119.666 -25 162.999 -75c31.333 -37.333 47 -80.666 47 -129.999v-380
c0 -66.667 -26.667 -121 -80 -163zM435.001 585.999c0 36.667 -13.167 67.834 -39.5 93.501s-58.166 38.5 -95.499 38.5s-69.166 -12.833 -95.499 -38.5s-39.5 -56.834 -39.5 -93.501v-380c0 -36.667 13.167 -68 39.5 -94s58.166 -39 95.499 -39s69.166 13 95.499 39
s39.5 57.333 39.5 94v380z" />
    <glyph glyph-name="P" unicode="P" 
d="M397 405c-34 -16.667 -66.333 -25.001 -97 -25.001h-135v-342c0 -12.667 -4 -22.334 -12 -29.001s-17 -9.66699 -27 -9c-24 1.33301 -36 14 -36 38v714c0 12 3.66699 21.333 11 28s16 10 26 10h173c68 0 123.333 -26 166 -78c29.333 -35.333 44 -77.666 44 -126.999
c0 -40 -10.333 -75.667 -31 -107s-48 -55.666 -82 -72.999zM300 716.999l-135 -0.000976562v-263h135c39.333 0 71.666 13 96.999 39s38 56.667 38 92c0 36.667 -13.167 67.834 -39.5 93.501s-58.166 38.5 -95.499 38.5z" />
    <glyph glyph-name="Q" unicode="Q" 
d="M531 -139c-30 -37.333 -67.9971 -56 -113.997 -56c-47.333 0 -86.333 18.667 -117 56c-22 27.333 -33 59.333 -33 96v31c-58 6 -105.667 32.333 -143 79c-29.333 37.333 -44 81.666 -44 132.999v394c0 66.667 25.667 121.334 77 164.001c37.333 32 81.666 48 132.999 48
c66 0 120.333 -25.667 163 -77c31.333 -38.667 47 -83.667 47 -135v-394c0 -69.333 -26.667 -125.666 -80 -168.999c-22.667 -18 -49 -31 -79 -39l-1 -30c-0.666992 -22.667 6.66602 -42 21.999 -58s33.666 -24 54.999 -24c20 0 37 7.83301 51 23.5s21.667 35.5 23 59.5
l1 16c0.666992 10.667 4.5 19 11.5 25s15.5 9 25.5 9s18.5 -2.83301 25.5 -8.5s10.5 -13.834 10.5 -24.501v-23c0 -37.333 -11.333 -69.333 -34 -96zM425.003 594c0 37.333 -13.332 69.5 -39.999 96.5s-58.334 40.5 -95.001 40.5c-37.333 0 -69.166 -13.333 -95.499 -40
s-39.5 -59 -39.5 -97v-186c7.33301 2 18.666 3 33.999 3c47.333 0 86 -18.333 116 -55c22.667 -26.667 34 -58.667 34 -96v-188c25.333 10 46 26.667 62 50s24 49.333 24 78v394zM189.004 344c-10.667 0 -22 -3 -34 -9v-135c0 -36 10.333 -67.667 31 -95s47 -43.333 79 -48
v200c0 24 -7.5 44.5 -22.5 61.5s-32.833 25.5 -53.5 25.5z" />
    <glyph glyph-name="R" unicode="R" horiz-adv-x="618" 
d="M508 3c-10.667 -4.66699 -21.1699 -4.66602 -31.5029 0.000976562s-17.166 11.334 -20.499 20.001l-184 358h-107v-343c0 -25.333 -11.667 -38 -35 -38c-10.667 0 -20 3 -28 9s-12 14.333 -12 25v720c0 11.333 3.83301 20.333 11.5 27s16.834 10 27.501 10h171
c60 0 110.167 -20.167 150.5 -60.5s60.5 -88.5 60.5 -144.5c0 -40.667 -10.333 -76.834 -31 -108.501s-48.334 -55.834 -83.001 -72.501c-18 -9.33301 -33.333 -15.333 -46 -18l171 -332c6.66699 -10.667 8.33398 -21 5.00098 -31s-9.66602 -17 -18.999 -21z
M389.997 685.001c-26.667 22 -56.667 33 -90 33h-135v-263h135c38.667 0 71 13 97 39s39 56.667 39 92c0 40 -15.333 73 -46 99z" />
    <glyph glyph-name="S" unicode="S" horiz-adv-x="616" 
d="M453 62c-44 -41.333 -97.334 -62 -160.001 -62c-48 0 -90.167 14 -126.5 42s-60.833 63 -73.5 105c-3.33301 10.667 -3.16602 20.834 0.500977 30.501s9.83398 16.5 18.501 20.5c21.333 7.33301 39.666 -3 54.999 -31c1.33301 -2.66699 3.5 -6.66699 6.5 -12
s5.16699 -9.33301 6.5 -12c12 -21.333 26.333 -38.333 43 -51s40 -19 70 -19c47.333 0 85.5 15.667 114.5 47s43.5 67.333 43.5 108c0 42 -13.667 76.833 -41 104.5s-60 43.5 -98 47.5c-62 6.66699 -111.667 29.167 -149 67.5s-56 84.833 -56 139.5
c0 64.667 25.667 117.667 77 159c36.667 30.667 81 46 133 46c50 0 93.167 -14 129.5 -42s60.833 -63.333 73.5 -106c2.66699 -9.33301 2 -18.5 -2 -27.5s-10.333 -15.5 -19 -19.5c-20.667 -7.33301 -38.667 2.66699 -54 30c-1.33301 2.66699 -3.5 6.66699 -6.5 12
s-5.16699 9.33301 -6.5 12c-26.667 45.333 -65 68 -115 68c-37.333 0 -69.5 -13 -96.5 -39s-40.5 -57 -40.5 -93c0 -34.667 13 -64.334 39 -89.001s60 -38.667 102 -42c56.667 -4 106.667 -30.333 150 -79c36.667 -42 55 -92 55 -150c0 -64 -24.333 -119 -73 -165z" />
    <glyph glyph-name="T" unicode="T" 
d="M473 556c-10 0 -18.834 3.33496 -26.501 10.002s-11.5 16 -11.5 28v123h-96v-679c0 -8.66699 -3 -17.167 -9 -25.5s-15.333 -12.5 -28 -12.5c-9.33301 0 -18 3 -26 9s-12 15.667 -12 29v679h-99v-123c0 -10 -3.5 -18.833 -10.5 -26.5s-16.167 -11.5 -27.5 -11.5
s-20.333 3.33301 -27 10s-10 16 -10 28v160c0 9.33301 3.5 17.666 10.5 24.999s16.5 11 28.5 11h342c8.66699 0 17.334 -2.83301 26.001 -8.5s13 -14.834 13 -27.501v-160c0 -9.33301 -3.16699 -18 -9.5 -26s-15.5 -12 -27.5 -12z" />
    <glyph glyph-name="U" unicode="U" 
d="M300 0c-50 0 -93.3301 14.333 -129.997 43c-53.333 42 -80 96 -80 162v547c0 8.66699 3 17.167 9 25.5s15.333 12.5 28 12.5c9.33301 0 18 -3.16699 26 -9.5s12 -15.833 12 -28.5v-547c0 -36.667 13.167 -67.834 39.5 -93.501s58.166 -38.5 95.499 -38.5
s69.166 12.833 95.499 38.5s39.5 56.834 39.5 93.501v547c0 9.33301 3.16699 18 9.5 26s15.833 12 28.5 12c10 0 18.667 -3.33301 26 -10s11 -16 11 -28v-547c0 -57.333 -20.333 -105.833 -61 -145.5s-90.334 -59.5 -149.001 -59.5z" />
    <glyph glyph-name="V" unicode="V" horiz-adv-x="603" 
d="M342 31c-4.66699 -20.667 -18.999 -31.001 -42.999 -31.001c-22 0 -35.333 10.333 -40 31l-168 714c-2.66699 10.667 -1 20.334 5 29.001s14.333 14.334 25 17.001c12.667 0.666992 23 -2 31 -8s12.667 -13.333 14 -22l134 -568l138 567
c0.666992 10.667 5.5 18.667 14.5 24s18.833 7.66602 29.5 6.99902c21.333 -6 31.666 -20.667 30.999 -44z" />
    <glyph glyph-name="W" unicode="W" 
d="M428 36c-4.66699 -25.333 -18.3359 -38.001 -41.0029 -38.001c-19.333 0 -32.666 10.333 -39.999 31c-18.667 51.333 -35 107 -49 167c-12.667 -52.667 -28.667 -107.334 -48 -164.001c-7.33301 -21.333 -20.666 -32 -39.999 -32s-32 11 -38 33
c-54.667 225.333 -82 465 -82 719c0 8.66699 3 17.167 9 25.5s15.333 12.5 28 12.5c9.33301 0 18 -3.16699 26 -9.5s12 -15.833 12 -28.5c2 -104 4.66699 -181 8 -231c8.66699 -116 23.334 -228 44.001 -336c20.667 73.333 35.667 159 45 257
c-0.666992 10.667 3.5 19.334 12.5 26.001s18.167 9.33398 27.5 8.00098c8.66699 -1.33301 17 -5 25 -11s11.667 -14 11 -24c6 -88 20.667 -176.667 44 -266c16 80.667 28.333 165.334 37 254.001c10.667 106 16 213.667 16 323c0 9.33301 3.16699 18 9.5 26
s15.833 12 28.5 12c10 0 18.667 -3.33301 26 -10s11 -16 11 -28c0 -224.667 -27.333 -463.334 -82 -716.001z" />
    <glyph glyph-name="X" unicode="X" horiz-adv-x="602" 
d="M341 390l165 -336.998c7.33301 -14.667 6.83301 -27.5 -1.5 -38.5s-19.5 -16 -33.5 -15s-24.333 8.83301 -31 23.5l-139 285l-139 -285c-7.33301 -14.667 -17.833 -22.5 -31.5 -23.5s-24.5 4 -32.5 15s-8.66699 23.833 -2 38.5l163 340l-166 346
c-4 8.66699 -4.33301 18.167 -1 28.5s10 17.166 20 20.499c8 4.66699 17 5.16699 27 1.5s17.667 -10.834 23 -21.501l137 -283l141 283c4 8.66699 10.5 15.167 19.5 19.5s19.5 4.16602 31.5 -0.500977c10 -3.33301 16.5 -10.166 19.5 -20.499s2.5 -19.5 -1.5 -27.5z" />
    <glyph glyph-name="Y" unicode="Y" horiz-adv-x="603" 
d="M339 388l0.00195312 -350.001c0 -12.667 -4 -22.167 -12 -28.5s-16.667 -9.5 -26 -9.5c-12.667 0 -22.167 4 -28.5 12s-9.5 16.667 -9.5 26v350l-170 350c-4 8.66699 -4.33301 18 -1 28s10 17 20 21c19.333 6.66699 34 3 44 -11l146 -294l138 284
c3.33301 12 10.666 19.667 21.999 23s20.666 3 27.999 -1c10 -4 16.833 -11.167 20.5 -21.5s3.16699 -20.166 -1.5 -29.499z" />
    <glyph glyph-name="Z" unicode="Z" 
d="M471 0h-344c-12.667 0 -22 4 -28 12s-9 16 -9 24c0 5.33301 0.666992 10 2 14l321 667h-284c-12.667 0 -22.334 3.83301 -29.001 11.5s-10 16.167 -10 25.5c0 12 4.33301 21 13 27s17.334 9 26.001 9h344c12 0 21 -4.16699 27 -12.5s9 -16.166 9 -23.499
c0 -2 -0.333008 -4.83301 -1 -8.5s-1 -6.5 -1 -8.5l-320 -664h284c12.667 0 22.334 -3.83301 29.001 -11.5s10 -16.167 10 -25.5c0 -12.667 -4.33301 -21.834 -13 -27.501s-17.334 -8.5 -26.001 -8.5z" />
    <glyph glyph-name="a" unicode="a" horiz-adv-x="400" 
 />
    <glyph glyph-name="b" unicode="b" horiz-adv-x="400" 
 />
    <glyph glyph-name="c" unicode="c" horiz-adv-x="400" 
 />
    <glyph glyph-name="d" unicode="d" horiz-adv-x="400" 
 />
    <glyph glyph-name="e" unicode="e" horiz-adv-x="400" 
 />
    <glyph glyph-name="f" unicode="f" horiz-adv-x="400" 
 />
    <glyph glyph-name="g" unicode="g" horiz-adv-x="400" 
 />
    <glyph glyph-name="h" unicode="h" horiz-adv-x="400" 
 />
    <glyph glyph-name="i" unicode="i" horiz-adv-x="400" 
 />
    <glyph glyph-name="j" unicode="j" horiz-adv-x="400" 
 />
    <glyph glyph-name="k" unicode="k" horiz-adv-x="400" 
 />
    <glyph glyph-name="l" unicode="l" horiz-adv-x="400" 
 />
    <glyph glyph-name="m" unicode="m" horiz-adv-x="400" 
 />
    <glyph glyph-name="n" unicode="n" horiz-adv-x="400" 
 />
    <glyph glyph-name="o" unicode="o" horiz-adv-x="400" 
 />
    <glyph glyph-name="p" unicode="p" horiz-adv-x="400" 
 />
    <glyph glyph-name="q" unicode="q" horiz-adv-x="400" 
 />
    <glyph glyph-name="r" unicode="r" horiz-adv-x="400" 
 />
    <glyph glyph-name="s" unicode="s" horiz-adv-x="400" 
 />
    <glyph glyph-name="t" unicode="t" horiz-adv-x="400" 
 />
    <glyph glyph-name="u" unicode="u" horiz-adv-x="400" 
 />
    <glyph glyph-name="v" unicode="v" horiz-adv-x="400" 
 />
    <glyph glyph-name="w" unicode="w" horiz-adv-x="400" 
 />
    <glyph glyph-name="x" unicode="x" horiz-adv-x="400" 
 />
    <glyph glyph-name="y" unicode="y" horiz-adv-x="400" 
 />
    <glyph glyph-name="z" unicode="z" horiz-adv-x="400" 
 />
    <glyph glyph-name="nbspace" unicode="&#xa0;" horiz-adv-x="400" 
 />
    <glyph glyph-name="section" unicode="&#xa7;" horiz-adv-x="604" 
 />
    <glyph glyph-name="ordfeminine" unicode="&#xaa;" horiz-adv-x="604" 
 />
    <glyph glyph-name="plusminus" unicode="&#xb1;" horiz-adv-x="260" 
 />
    <glyph glyph-name="Agrave" unicode="&#xc0;" horiz-adv-x="601" 
d="M482 -1c-12.667 -2.66699 -22.833 -1.00098 -30.5 4.99902s-12.5 13 -14.5 21l-32 134h-209l-31 -134c-7.33301 -21.333 -23 -29.666 -47 -24.999c-23.333 5.33301 -32 20.333 -26 45l164 690c4.66699 21.333 18.667 32 42 32h6c12 0 21.333 -3.33301 28 -10
s11 -14 13 -22l164 -690c6 -24.667 -3 -40 -27 -46zM301.001 595.999l-87 -364h174zM333.001 849.999c-6 -6.66699 -13.666 -10.667 -22.999 -12s-19 2 -29 10l-110 110c-16.667 17.333 -16.334 34.666 0.999023 51.999c18 18 35.667 18.667 53 2l110 -110
c16 -17.333 15.333 -34.666 -2 -51.999z" />
    <glyph glyph-name="Aacute" unicode="&#xc1;" horiz-adv-x="601" 
d="M482 -1c-12.667 -2.66699 -22.833 -1.00098 -30.5 4.99902s-12.5 13 -14.5 21l-32 134h-209l-31 -134c-7.33301 -21.333 -23 -29.666 -47 -24.999c-23.333 5.33301 -32 20.333 -26 45l164 690c4.66699 21.333 18.667 32 42 32h6c12 0 21.333 -3.33301 28 -10
s11 -14 13 -22l164 -690c6 -24.667 -3 -40 -27 -46zM301.001 595.999l-87 -364h174zM286.001 848.999c-6.66699 6 -10.668 13.499 -12.001 22.499s2 18.833 10 29.5l110 110c17.333 16.667 35 16 53 -2c6.66699 -6.66699 10.5 -14.5 11.5 -23.5s-2.5 -18.5 -10.5 -28.5
l-110 -110c-17.333 -17.333 -34.666 -16.666 -51.999 2.00098z" />
    <glyph glyph-name="Acircumflex" unicode="&#xc2;" horiz-adv-x="601" 
d="M482 -1c-12.667 -2.66699 -22.833 -1.00098 -30.5 4.99902s-12.5 13 -14.5 21l-32 134h-209l-31 -134c-7.33301 -21.333 -23 -29.666 -47 -24.999c-23.333 5.33301 -32 20.333 -26 45l164 690c4.66699 21.333 18.667 32 42 32h6c12 0 21.333 -3.33301 28 -10
s11 -14 13 -22l164 -690c6 -24.667 -3 -40 -27 -46zM301.001 595.999l-87 -364h174zM225.001 848.999c-16.667 -17.333 -34 -17.001 -52 0.999023c-6.66699 6.66699 -10.667 14.5 -12 23.5s2 18.833 10 29.5l108 108c18 16.667 35.667 17 53 1l110 -110
c16 -17.333 15.333 -34.666 -2 -51.999c-6 -6.66699 -13.667 -10.667 -23 -12s-19 2 -29 10l-83 83z" />
    <glyph glyph-name="Atilde" unicode="&#xc3;" horiz-adv-x="601" 
d="M482 -1c-12.667 -2.66699 -22.833 -1.00098 -30.5 4.99902s-12.5 13 -14.5 21l-32 134h-209l-31 -134c-7.33301 -21.333 -23 -29.666 -47 -24.999c-23.333 5.33301 -32 20.333 -26 45l164 690c4.66699 21.333 18.667 32 42 32h6c12 0 21.333 -3.33301 28 -10
s11 -14 13 -22l164 -690c6 -24.667 -3 -40 -27 -46zM301.001 595.999l-87 -364h174z" />
    <glyph glyph-name="Adieresis" unicode="&#xc4;" horiz-adv-x="582" 
d="M482 -1c-12.667 -2.66699 -22.833 -1.00098 -30.5 4.99902s-12.5 13 -14.5 21l-32 134h-209l-31 -134c-7.33301 -21.333 -23 -29.666 -47 -24.999c-23.333 5.33301 -32 20.333 -26 45l164 690c4.66699 21.333 18.667 32 42 32h6c12 0 21.333 -3.33301 28 -10
s11 -14 13 -22l164 -690c6 -24.667 -3 -40 -27 -46zM301.001 595.999l-87 -364h174zM375.001 842.999c-9.33301 0 -18 3.16602 -26 9.49902s-12 15.5 -12 27.5v59c0 11.333 3.83301 20.333 11.5 27s16.5 10 26.5 10c9.33301 0.666992 18 -2.16602 26 -8.49902
s12 -15.833 12 -28.5v-59c0 -24.667 -12.667 -37 -38 -37zM231.001 842.998c-9.33301 0 -18 3.16602 -26 9.49902s-12 15.5 -12 27.5v59c0 11.333 3.83301 20.333 11.5 27s16.5 10 26.5 10c9.33301 0.666992 18 -2.16602 26 -8.49902s12 -15.833 12 -28.5v-59
c0 -24.667 -12.667 -37 -38 -37z" />
    <glyph glyph-name="Aring" unicode="&#xc5;" horiz-adv-x="601" 
d="M482 -1c-12.667 -2.66699 -22.833 -1.00098 -30.5 4.99902s-12.5 13 -14.5 21l-32 134h-209l-31 -134c-7.33301 -21.333 -23 -29.666 -47 -24.999c-23.333 5.33301 -32 20.333 -26 45l164 690c4.66699 21.333 18.667 32 42 32h6c12 0 21.333 -3.33301 28 -10
s11 -14 13 -22l164 -690c6 -24.667 -3 -40 -27 -46zM301.001 595.999l-87 -364h174z" />
    <glyph glyph-name="Ccedilla" unicode="&#xc7;" 
d="M134 71c-29.333 35.333 -44.0039 77.6699 -44.0039 127.003v380c0 57.333 20.5 105.666 61.5 144.999s90.5 59 148.5 59c58.667 0 108.334 -19.833 149.001 -59.5s61 -87.834 61 -144.501c0 -12 -3.33301 -21.333 -10 -28s-15.667 -10 -27 -10s-20.5 3.83301 -27.5 11.5
s-10.5 16.5 -10.5 26.5c0 36.667 -13.167 67.834 -39.5 93.501s-58.166 38.5 -95.499 38.5s-69.166 -12.833 -95.499 -38.5s-39.5 -56.834 -39.5 -93.501v-380c0 -38 13.167 -70.167 39.5 -96.5s58.166 -39.5 95.499 -39.5s69.166 13.167 95.499 39.5s39.5 58.5 39.5 96.5
c0 10.667 4 19.334 12 26.001s16.667 10 26 10c11.333 0 20.333 -3.33301 27 -10s10 -15.334 10 -26.001c0 -66 -26.667 -120 -80 -162c-23.333 -18.667 -50.333 -31.334 -81 -38.001v-48c0 -34 -10 -63 -30 -87c-16.667 -21.333 -31.834 -35 -45.501 -41s-33.5 -9 -59.5 -9
c-20.667 0 -38.667 3.16699 -54 9.5s-31.666 19.833 -48.999 40.5c-20 25.333 -30 54.333 -30 87v20c0 9.33301 3.16699 16.666 9.5 21.999s13.833 8 22.5 8s16.334 -2.83301 23.001 -8.5s10.334 -13.167 11.001 -22.5v-14c1.33301 -21.333 8.33301 -39.166 21 -53.499
s28 -21.5 46 -21.5c18.667 0 34.834 7.33301 48.501 22s20.5 32 20.5 52l1 40c-60.667 4 -110.667 29.667 -150 77z" />
    <glyph glyph-name="Egrave" unicode="&#xc8;" 
d="M471 0h-342.003c-12 0 -21.5 3.66699 -28.5 11s-10.5 15.666 -10.5 24.999v718c0 12.667 4.33301 21.834 13 27.501s17.334 8.5 26.001 8.5h342c12 0 21.5 -3.66699 28.5 -11s10.5 -15.666 10.5 -24.999c0 -12 -4.16699 -21.167 -12.5 -27.5s-17.166 -9.5 -26.499 -9.5
h-306v-263h216c12 0 21.5 -3.66699 28.5 -11s10.5 -16 10.5 -26c0 -12 -4.16699 -21.167 -12.5 -27.5s-17.166 -9.5 -26.499 -9.5h-216v-307h306c12.667 0 22.334 -3.83301 29.001 -11.5s10 -16.167 10 -25.5c0 -12.667 -4.33301 -21.834 -13 -27.501
s-17.334 -8.5 -26.001 -8.5zM332.997 850c-6 -6.66699 -13.666 -10.667 -22.999 -12s-19 2 -29 10l-110 110c-16.667 17.333 -16.334 34.666 0.999023 51.999c18 18 35.667 18.667 53 2l110 -110c16 -17.333 15.333 -34.666 -2 -51.999z" />
    <glyph glyph-name="Eacute" unicode="&#xc9;" 
d="M471 0h-342.003c-12 0 -21.5 3.66699 -28.5 11s-10.5 15.666 -10.5 24.999v718c0 12.667 4.33301 21.834 13 27.501s17.334 8.5 26.001 8.5h342c12 0 21.5 -3.66699 28.5 -11s10.5 -15.666 10.5 -24.999c0 -12 -4.16699 -21.167 -12.5 -27.5s-17.166 -9.5 -26.499 -9.5
h-306v-263h216c12 0 21.5 -3.66699 28.5 -11s10.5 -16 10.5 -26c0 -12 -4.16699 -21.167 -12.5 -27.5s-17.166 -9.5 -26.499 -9.5h-216v-307h306c12.667 0 22.334 -3.83301 29.001 -11.5s10 -16.167 10 -25.5c0 -12.667 -4.33301 -21.834 -13 -27.501
s-17.334 -8.5 -26.001 -8.5zM262.997 860c-6.66699 6 -10.667 13.666 -12 22.999s2.33398 19 11.001 29l109 110c17.333 16.667 35 16 53 -2c17.333 -17.333 17.666 -34.666 0.999023 -51.999l-110 -110c-16.667 -16.667 -34 -16 -52 2z" />
    <glyph glyph-name="Ecircumflex" unicode="&#xca;" 
d="M471 0h-342.003c-12 0 -21.5 3.66699 -28.5 11s-10.5 15.666 -10.5 24.999v718c0 12.667 4.33301 21.834 13 27.501s17.334 8.5 26.001 8.5h342c12 0 21.5 -3.66699 28.5 -11s10.5 -15.666 10.5 -24.999c0 -12 -4.16699 -21.167 -12.5 -27.5s-17.166 -9.5 -26.499 -9.5
h-306v-263h216c12 0 21.5 -3.66699 28.5 -11s10.5 -16 10.5 -26c0 -12 -4.16699 -21.167 -12.5 -27.5s-17.166 -9.5 -26.499 -9.5h-216v-307h306c12.667 0 22.334 -3.83301 29.001 -11.5s10 -16.167 10 -25.5c0 -12.667 -4.33301 -21.834 -13 -27.501
s-17.334 -8.5 -26.001 -8.5z" />
    <glyph glyph-name="Edieresis" unicode="&#xcb;" 
d="M471 0h-342.003c-12 0 -21.5 3.66699 -28.5 11s-10.5 15.666 -10.5 24.999v718c0 12.667 4.33301 21.834 13 27.501s17.334 8.5 26.001 8.5h342c12 0 21.5 -3.66699 28.5 -11s10.5 -15.666 10.5 -24.999c0 -12 -4.16699 -21.167 -12.5 -27.5s-17.166 -9.5 -26.499 -9.5
h-306v-263h216c12 0 21.5 -3.66699 28.5 -11s10.5 -16 10.5 -26c0 -12 -4.16699 -21.167 -12.5 -27.5s-17.166 -9.5 -26.499 -9.5h-216v-307h306c12.667 0 22.334 -3.83301 29.001 -11.5s10 -16.167 10 -25.5c0 -12.667 -4.33301 -21.834 -13 -27.501
s-17.334 -8.5 -26.001 -8.5zM374.997 843c-9.33301 0 -18 3.16602 -26 9.49902s-12 15.5 -12 27.5v59c0 11.333 3.83301 20.333 11.5 27s16.5 10 26.5 10c9.33301 0.666992 18 -2.16602 26 -8.49902s12 -15.833 12 -28.5v-59c0 -24.667 -12.667 -37 -38 -37z
M230.997 842.999c-9.33301 0 -18 3.16602 -26 9.49902s-12 15.5 -12 27.5v59c0 11.333 3.83301 20.333 11.5 27s16.5 10 26.5 10c9.33301 0.666992 18 -2.16602 26 -8.49902s12 -15.833 12 -28.5v-59c0 -24.667 -12.667 -37 -38 -37z" />
    <glyph glyph-name="Igrave" unicode="&#xcc;" horiz-adv-x="256" 
d="M128 0c-9.33301 0 -18 3.16699 -26 9.5s-12 15.833 -12 28.5v714c0 25.333 12.667 38 38 38c9.33301 0 18 -3.16699 26 -9.5s12 -15.833 12 -28.5v-714c0 -25.333 -12.667 -38 -38 -38z" />
    <glyph glyph-name="Iacute" unicode="&#xcd;" horiz-adv-x="256" 
d="M128 0c-9.33301 0 -18 3.16699 -26 9.5s-12 15.833 -12 28.5v714c0 25.333 12.667 38 38 38c9.33301 0 18 -3.16699 26 -9.5s12 -15.833 12 -28.5v-714c0 -25.333 -12.667 -38 -38 -38zM95 852c-6 6 -9.66699 13.667 -11 23s2 19 10 29l110 110
c16.667 16.667 34 16.334 52 -0.999023c17.333 -18.667 18 -36.334 2 -53.001l-110 -110c-17.333 -16.667 -35 -16 -53 2z" />
    <glyph glyph-name="Icircumflex" unicode="&#xce;" horiz-adv-x="256" 
d="M128 0c-9.33301 0 -18 3.16699 -26 9.5s-12 15.833 -12 28.5v714c0 25.333 12.667 38 38 38c9.33301 0 18 -3.16699 26 -9.5s12 -15.833 12 -28.5v-714c0 -25.333 -12.667 -38 -38 -38zM56 846c-17.333 -17.333 -34.999 -16.999 -52.999 1.00098
c-16.667 18.667 -17 36 -1 52l108 108c6.66699 6.66699 14.5 10.667 23.5 12s18.5 -2.33398 28.5 -11.001l110 -109c17.333 -17.333 17 -35 -1 -53c-18.667 -16.667 -36.334 -17 -53.001 -1l-83 83z" />
    <glyph glyph-name="Idieresis" unicode="&#xcf;" horiz-adv-x="256" 
d="M128 0c-9.33301 0 -18 3.16699 -26 9.5s-12 15.833 -12 28.5v714c0 25.333 12.667 38 38 38c9.33301 0 18 -3.16699 26 -9.5s12 -15.833 12 -28.5v-714c0 -25.333 -12.667 -38 -38 -38zM205 843c-9.33301 0 -18 3.16602 -26 9.49902s-12 15.5 -12 27.5v59
c0 11.333 3.83301 20.333 11.5 27s16.5 10 26.5 10c9.33301 0.666992 18 -2.16602 26 -8.49902s12 -15.833 12 -28.5v-59c0 -24.667 -12.667 -37 -38 -37zM61 842.999c-9.33301 0 -18 3.16602 -26 9.49902s-12 15.5 -12 27.5v59c0 11.333 3.83301 20.333 11.5 27
s16.5 10 26.5 10c9.33301 0.666992 18 -2.16602 26 -8.49902s12 -15.833 12 -28.5v-59c0 -24.667 -12.667 -37 -38 -37z" />
    <glyph glyph-name="Ntilde" unicode="&#xd1;" 
d="M440 21l-275 559v-543c0 -12.667 -4 -22.167 -12 -28.5s-16.667 -9.5 -26 -9.5c-12.667 0 -22 4.16699 -28 12.5s-9 16.833 -9 25.5v714c0 12 3.66699 21.333 11 28s16 10 26 10s17.333 -2.5 22 -7.5s9.66699 -13.167 15 -24.5l271 -551v546
c-1.33301 10 1.66699 18.667 9 26s17 11 29 11c12.667 0 22 -4.16699 28 -12.5s9 -16.833 9 -25.5v-714c0 -21.333 -9.5 -33.833 -28.5 -37.5s-32.833 3.5 -41.5 21.5z" />
    <glyph glyph-name="Ograve" unicode="&#xd2;" 
d="M430 43c-36.667 -28.667 -79.999 -43.001 -129.999 -43.001c-68 0 -123.333 26 -166 78c-29.333 35.333 -44 78 -44 128v380c0 57.333 20.5 105.833 61.5 145.5s90.5 59.5 148.5 59.5c65.333 0 119.666 -25 162.999 -75c31.333 -37.333 47 -80.666 47 -129.999v-380
c0 -66.667 -26.667 -121 -80 -163zM435.001 585.999c0 36.667 -13.167 67.834 -39.5 93.501s-58.166 38.5 -95.499 38.5s-69.166 -12.833 -95.499 -38.5s-39.5 -56.834 -39.5 -93.501v-380c0 -36.667 13.167 -68 39.5 -94s58.166 -39 95.499 -39s69.166 13 95.499 39
s39.5 57.333 39.5 94v380zM343.001 850.999c-6 -6 -13.667 -9.66602 -23 -10.999s-19 2 -29 10l-110 110c-16.667 16.667 -16.334 34 0.999023 52c18.667 17.333 36.334 17.666 53.001 0.999023l110 -109c16.667 -17.333 16 -35 -2 -53z" />
    <glyph glyph-name="Oacute" unicode="&#xd3;" 
d="M430 43c-36.667 -28.667 -79.999 -43.001 -129.999 -43.001c-68 0 -123.333 26 -166 78c-29.333 35.333 -44 78 -44 128v380c0 57.333 20.5 105.833 61.5 145.5s90.5 59.5 148.5 59.5c65.333 0 119.666 -25 162.999 -75c31.333 -37.333 47 -80.666 47 -129.999v-380
c0 -66.667 -26.667 -121 -80 -163zM435.001 585.999c0 36.667 -13.167 67.834 -39.5 93.501s-58.166 38.5 -95.499 38.5s-69.166 -12.833 -95.499 -38.5s-39.5 -56.834 -39.5 -93.501v-380c0 -36.667 13.167 -68 39.5 -94s58.166 -39 95.499 -39s69.166 13 95.499 39
s39.5 57.333 39.5 94v380zM269.001 850.999c-6.66699 6.66699 -10.667 14.5 -12 23.5s2 18.5 10 28.5l110 110c17.333 17.333 35 17 53 -1c6.66699 -6.66699 10.5 -14.5 11.5 -23.5s-2.5 -18.5 -10.5 -28.5l-110 -110c-16.667 -17.333 -34 -17 -52 1z" />
    <glyph glyph-name="Ocircumflex" unicode="&#xd4;" 
d="M430 43c-36.667 -28.667 -79.999 -43.001 -129.999 -43.001c-68 0 -123.333 26 -166 78c-29.333 35.333 -44 78 -44 128v380c0 57.333 20.5 105.833 61.5 145.5s90.5 59.5 148.5 59.5c65.333 0 119.666 -25 162.999 -75c31.333 -37.333 47 -80.666 47 -129.999v-380
c0 -66.667 -26.667 -121 -80 -163zM435.001 585.999c0 36.667 -13.167 67.834 -39.5 93.501s-58.166 38.5 -95.499 38.5s-69.166 -12.833 -95.499 -38.5s-39.5 -56.834 -39.5 -93.501v-380c0 -36.667 13.167 -68 39.5 -94s58.166 -39 95.499 -39s69.166 13 95.499 39
s39.5 57.333 39.5 94v380zM225.001 848.999c-16.667 -17.333 -34 -17.001 -52 0.999023c-6.66699 6.66699 -10.667 14.5 -12 23.5s2 18.833 10 29.5l108 108c18 16.667 35.667 17 53 1l110 -110c16 -17.333 15.333 -34.666 -2 -51.999c-6 -6.66699 -13.667 -10.667 -23 -12
s-19 2 -29 10l-83 83z" />
    <glyph glyph-name="Odieresis" unicode="&#xd6;" horiz-adv-x="582" 
d="M375 843c-9.33301 0 -18 3.16602 -26 9.49902s-12 15.5 -12 27.5v59c0 11.333 3.83301 20.333 11.5 27s16.5 10 26.5 10c9.33301 0.666992 18 -2.16602 26 -8.49902s12 -15.833 12 -28.5v-59c0 -24.667 -12.667 -37 -38 -37zM231 842.999
c-9.33301 0 -18 3.16602 -26 9.49902s-12 15.5 -12 27.5v59c0 11.333 3.83301 20.333 11.5 27s16.5 10 26.5 10c9.33301 0.666992 18 -2.16602 26 -8.49902s12 -15.833 12 -28.5v-59c0 -24.667 -12.667 -37 -38 -37zM430 42.998
c-36.667 -28.667 -79.999 -43.001 -129.999 -43.001c-68 0 -123.333 26 -166 78c-29.333 35.333 -44 78 -44 128v380c0 57.333 20.5 105.833 61.5 145.5s90.5 59.5 148.5 59.5c65.333 0 119.666 -25 162.999 -75c31.333 -37.333 47 -80.666 47 -129.999v-380
c0 -66.667 -26.667 -121 -80 -163zM435.001 585.997c0 36.667 -13.167 67.834 -39.5 93.501s-58.166 38.5 -95.499 38.5s-69.166 -12.833 -95.499 -38.5s-39.5 -56.834 -39.5 -93.501v-380c0 -36.667 13.167 -68 39.5 -94s58.166 -39 95.499 -39s69.166 13 95.499 39
s39.5 57.333 39.5 94v380z" />
    <glyph glyph-name="Ugrave" unicode="&#xd9;" 
d="M300 0c-50 0 -93.3301 14.333 -129.997 43c-53.333 42 -80 96 -80 162v547c0 8.66699 3 17.167 9 25.5s15.333 12.5 28 12.5c9.33301 0 18 -3.16699 26 -9.5s12 -15.833 12 -28.5v-547c0 -36.667 13.167 -67.834 39.5 -93.501s58.166 -38.5 95.499 -38.5
s69.166 12.833 95.499 38.5s39.5 56.834 39.5 93.501v547c0 9.33301 3.16699 18 9.5 26s15.833 12 28.5 12c10 0 18.667 -3.33301 26 -10s11 -16 11 -28v-547c0 -57.333 -20.333 -105.833 -61 -145.5s-90.334 -59.5 -149.001 -59.5zM333.003 850
c-6 -6.66699 -13.666 -10.667 -22.999 -12s-19 2 -29 10l-110 110c-16.667 17.333 -16.334 34.666 0.999023 51.999c18 18 35.667 18.667 53 2l110 -110c16 -17.333 15.333 -34.666 -2 -51.999z" />
    <glyph glyph-name="Uacute" unicode="&#xda;" 
d="M300 0c-50 0 -93.3301 14.333 -129.997 43c-53.333 42 -80 96 -80 162v547c0 8.66699 3 17.167 9 25.5s15.333 12.5 28 12.5c9.33301 0 18 -3.16699 26 -9.5s12 -15.833 12 -28.5v-547c0 -36.667 13.167 -67.834 39.5 -93.501s58.166 -38.5 95.499 -38.5
s69.166 12.833 95.499 38.5s39.5 56.834 39.5 93.501v547c0 9.33301 3.16699 18 9.5 26s15.833 12 28.5 12c10 0 18.667 -3.33301 26 -10s11 -16 11 -28v-547c0 -57.333 -20.333 -105.833 -61 -145.5s-90.334 -59.5 -149.001 -59.5zM266.003 852
c-6.66699 6.66699 -10.667 14.502 -12 23.502s2 18.833 10 29.5l110 110c17.333 17.333 34.666 16.666 51.999 -2.00098c6.66699 -6.66699 10.667 -14.5 12 -23.5s-2 -18.5 -10 -28.5l-110 -110c-17.333 -16.667 -34.666 -16.334 -51.999 0.999023z" />
    <glyph glyph-name="Ucircumflex" unicode="&#xdb;" 
d="M300 0c-50 0 -93.3301 14.333 -129.997 43c-53.333 42 -80 96 -80 162v547c0 8.66699 3 17.167 9 25.5s15.333 12.5 28 12.5c9.33301 0 18 -3.16699 26 -9.5s12 -15.833 12 -28.5v-547c0 -36.667 13.167 -67.834 39.5 -93.501s58.166 -38.5 95.499 -38.5
s69.166 12.833 95.499 38.5s39.5 56.834 39.5 93.501v547c0 9.33301 3.16699 18 9.5 26s15.833 12 28.5 12c10 0 18.667 -3.33301 26 -10s11 -16 11 -28v-547c0 -57.333 -20.333 -105.833 -61 -145.5s-90.334 -59.5 -149.001 -59.5zM225.003 849
c-16.667 -17.333 -34 -17.001 -52 0.999023c-6.66699 6.66699 -10.667 14.5 -12 23.5s2 18.833 10 29.5l108 108c18 16.667 35.667 17 53 1l110 -110c16 -17.333 15.333 -34.666 -2 -51.999c-6 -6.66699 -13.667 -10.667 -23 -12s-19 2 -29 10l-83 83z" />
    <glyph glyph-name="Udieresis" unicode="&#xdc;" 
d="M300 0c-50 0 -93.3301 14.333 -129.997 43c-53.333 42 -80 96 -80 162v547c0 8.66699 3 17.167 9 25.5s15.333 12.5 28 12.5c9.33301 0 18 -3.16699 26 -9.5s12 -15.833 12 -28.5v-547c0 -36.667 13.167 -67.834 39.5 -93.501s58.166 -38.5 95.499 -38.5
s69.166 12.833 95.499 38.5s39.5 56.834 39.5 93.501v547c0 9.33301 3.16699 18 9.5 26s15.833 12 28.5 12c10 0 18.667 -3.33301 26 -10s11 -16 11 -28v-547c0 -57.333 -20.333 -105.833 -61 -145.5s-90.334 -59.5 -149.001 -59.5zM375.003 843
c-9.33301 0 -18 3.16602 -26 9.49902s-12 15.5 -12 27.5v59c0 11.333 3.83301 20.333 11.5 27s16.5 10 26.5 10c9.33301 0.666992 18 -2.16602 26 -8.49902s12 -15.833 12 -28.5v-59c0 -24.667 -12.667 -37 -38 -37zM231.003 842.999c-9.33301 0 -18 3.16602 -26 9.49902
s-12 15.5 -12 27.5v59c0 11.333 3.83301 20.333 11.5 27s16.5 10 26.5 10c9.33301 0.666992 18 -2.16602 26 -8.49902s12 -15.833 12 -28.5v-59c0 -24.667 -12.667 -37 -38 -37z" />
    <glyph glyph-name="Ydieresis" unicode="&#x178;" horiz-adv-x="603" 
d="M339 388l0.00195312 -350.001c0 -12.667 -4 -22.167 -12 -28.5s-16.667 -9.5 -26 -9.5c-12.667 0 -22.167 4 -28.5 12s-9.5 16.667 -9.5 26v350l-170 350c-4 8.66699 -4.33301 18 -1 28s10 17 20 21c19.333 6.66699 34 3 44 -11l146 -294l138 284
c3.33301 12 10.666 19.667 21.999 23s20.666 3 27.999 -1c10 -4 16.833 -11.167 20.5 -21.5s3.16699 -20.166 -1.5 -29.499zM375.002 842.999c-9.33301 0 -18 3.16602 -26 9.49902s-12 15.5 -12 27.5v59c0 11.333 3.83301 20.333 11.5 27s16.5 10 26.5 10
c9.33301 0.666992 18 -2.16602 26 -8.49902s12 -15.833 12 -28.5v-59c0 -24.667 -12.667 -37 -38 -37zM231.002 842.998c-9.33301 0 -18 3.16602 -26 9.49902s-12 15.5 -12 27.5v59c0 11.333 3.83301 20.333 11.5 27s16.5 10 26.5 10
c9.33301 0.666992 18 -2.16602 26 -8.49902s12 -15.833 12 -28.5v-59c0 -24.667 -12.667 -37 -38 -37z" />
    <glyph glyph-name="endash" unicode="&#x2013;" horiz-adv-x="536" 
d="M439 381h-341c-30.667 0 -46 12.667 -46 38c0 9.33301 4 18 12 26s19.333 12 34 12h341c31.333 0 47 -12.667 47 -38c0 -10 -4.16699 -18.833 -12.5 -26.5s-19.833 -11.5 -34.5 -11.5z" />
    <glyph glyph-name="emdash" unicode="&#x2014;" horiz-adv-x="745" 
d="M652 381h-554c-30.667 0 -46 12.667 -46 38c0 9.33301 4 18 12 26s19.333 12 34 12h554c31.333 0 47 -12.667 47 -38c0 -10 -4.16699 -18.833 -12.5 -26.5s-19.833 -11.5 -34.5 -11.5z" />
    <glyph glyph-name="quoteright" unicode="&#x2019;" horiz-adv-x="252" 
d="M130 506c-9.33301 0 -18 3.16699 -26 9.5s-12 15.5 -12 27.5v210c0 24.667 12.667 37 38 37c9.33301 0 18 -3.16699 26 -9.5s12 -15.5 12 -27.5v-210c0 -24.667 -12.667 -37 -38 -37z" />
    <glyph glyph-name=".null" horiz-adv-x="0" 
 />
    <glyph glyph-name="nonmarkingreturn" horiz-adv-x="333" 
 />
  </font>
</defs>
</svg>
