<?xml version="1.0" standalone="no"?>
<!DOCTYPE svg PUBLIC "-//W3C//DTD SVG 1.1//EN" "http://www.w3.org/Graphics/SVG/1.1/DTD/svg11.dtd" >
<svg>
<metadata>
Created by FontForge 20090914 at Sat Jun 30 09:11:20 2018
 By www-data
Copyright 2016 The Muli Project Authors (contact@sansoxygen.com)
</metadata>
<defs>
<font id="Muli-Regular" horiz-adv-x="600" >
  <font-face 
    font-family="Muli"
    font-weight="400"
    font-stretch="normal"
    units-per-em="1000"
    panose-1="0 0 5 0 0 0 0 0 0 0"
    ascent="800"
    descent="-200"
    x-height="502"
    cap-height="712"
    bbox="-329 -273 1289 1088"
    underline-thickness="50"
    underline-position="-50"
    unicode-range="U+000D-U+FB02"
  />
<missing-glyph horiz-adv-x="476" 
d="M390 736v-952h-301v952h301zM317 672h-157v-31h62v-35h-63v-32h158v32h-63v35h63v31zM254 549h-95v-99h158v33h-63v66zM222 517v-34h-32v34h32zM317 425h-158v-32h63v-35h-63v-31h95v66h63v32zM317 368h-31v-63h-127v-33h158v96zM317 251h-95v-53h32v22h32v-45h-96v76
h-31v-107h158v107zM317 87h-158v-108h158v108zM286 55v-44h-96v44h96zM317 -43h-158v-31h67l-67 -45v-31h158v31h-97l67 45h30v31z" />
    <glyph glyph-name="fi" unicode="fi" horiz-adv-x="573" 
d="M186 503l309 -0.000976562v-503h-81v439h-228v-439h-81v439h-98v64h98v67c0 40.667 6.16699 73.334 18.5 98.001s32.5 42.667 60.5 54s66 17 114 17h32v-63h-25c-34.667 0 -60.167 -3 -76.5 -9s-27.5 -17.5 -33.5 -34.5s-9 -43.167 -9 -78.5v-51zM404 720.999h101v-94
h-101v94z" />
    <glyph glyph-name="fl" unicode="fl" horiz-adv-x="575" 
d="M208.5 647.5c-15 -15 -22.499 -40.833 -22.499 -77.5v-67h123v-64h-123v-439h-81v439h-98v64h98v77c0 52.667 13.167 92.5 39.5 119.5s63.166 40.5 110.499 40.5c23.333 0 46 -3 68 -9v-69c-18.667 5.33301 -36 8 -52 8c-26.667 0 -47.5 -7.5 -62.5 -22.5zM415.001 0v736
h81v-736h-81z" />
    <glyph glyph-name=".notdef" horiz-adv-x="476" 
d="M390 736v-952h-301v952h301zM317 672h-157v-31h62v-35h-63v-32h158v32h-63v35h63v31zM254 549h-95v-99h158v33h-63v66zM222 517v-34h-32v34h32zM317 425h-158v-32h63v-35h-63v-31h95v66h63v32zM317 368h-31v-63h-127v-33h158v96zM317 251h-95v-53h32v22h32v-45h-96v76
h-31v-107h158v107zM317 87h-158v-108h158v108zM286 55v-44h-96v44h96zM317 -43h-158v-31h67l-67 -45v-31h158v31h-97l67 45h30v31z" />
    <glyph glyph-name="NULL" horiz-adv-x="0" 
 />
    <glyph glyph-name="NULL" horiz-adv-x="0" 
 />
    <glyph glyph-name="nonmarkingreturn" unicode="&#xd;" horiz-adv-x="261" 
 />
    <glyph glyph-name="space" unicode=" " horiz-adv-x="261" 
 />
    <glyph glyph-name="exclam" unicode="!" horiz-adv-x="231" 
d="M90 187l-25 525h101l-26 -525h-50zM64 103h103v-103h-103v103z" />
    <glyph glyph-name="quotedbl" unicode="&#x22;" horiz-adv-x="424" 
d="M85 432l-22 280h96l-20 -280h-54zM287 432l-22 280h96l-20 -280h-54z" />
    <glyph glyph-name="numbersign" unicode="#" horiz-adv-x="606" 
d="M571 477h-100l-46 -234h126v-59h-137l-36 -184h-64l36 184h-161l-36 -184h-64l36 184h-90v59h101l46 234h-127v59h139l34 176h64l-34 -176h161l34 176h64l-34 -176h88v-59zM361 243l46 234h-161l-46 -234h161z" />
    <glyph glyph-name="dollar" unicode="$" 
d="M496 59c-38 -36 -88.334 -57.667 -151.001 -65v-110h-70v109c-46 2.66699 -88.5 11.667 -127.5 27s-73.167 36.666 -102.5 63.999l31 63c32 -27.333 64.167 -47.666 96.5 -60.999s67.5 -21 105.5 -23v254c-46 12 -84 24.667 -114 38s-55.167 32.833 -75.5 58.5
s-30.5 59.5 -30.5 101.5c0 36.667 9.16699 69.667 27.5 99s43.833 53.166 76.5 71.499s70.334 29.5 113.001 33.5v109h70v-110c38.667 -3.33301 75.5 -12.666 110.5 -27.999s64.833 -35.333 89.5 -60l-31 -63c-48.667 46.667 -106 73.667 -172 81v-269
c44 -10.667 80.5 -22.334 109.5 -35.001s53.167 -31.167 72.5 -55.5s29 -56.166 29 -95.499c0 -53.333 -19 -98 -57 -134zM176.999 440c23.333 -18 57 -33 101 -45v253c-42.667 -4 -76 -17.5 -100 -40.5s-36 -52.833 -36 -89.5c0 -34 11.667 -60 35 -78zM436.499 105.5
c22.333 21.667 33.5 50.1689 33.5 85.502c0 29.333 -11 52.166 -33 68.499s-53.667 30.166 -95 41.499v-236c40.667 5.33301 72.167 18.833 94.5 40.5z" />
    <glyph glyph-name="percent" unicode="%" horiz-adv-x="939" 
d="M101 340c-30 36.667 -45 91 -45 163c0 71.333 15 125.333 45 162s72 55 126 55s96.167 -18.333 126.5 -55s45.5 -90.667 45.5 -162c0 -72 -15.167 -126.333 -45.5 -163s-72.5 -55 -126.5 -55s-96 18.333 -126 55zM303 0h-79l412 712h79zM300.5 381.5
c15.667 25.667 23.5 66.167 23.5 121.5c0 54.667 -7.83301 94.834 -23.5 120.501s-40.167 38.5 -73.5 38.5c-32.667 0 -57 -12.833 -73 -38.5s-24 -65.834 -24 -120.501c0 -55.333 8 -95.833 24 -121.5s40.333 -38.5 73 -38.5c33.333 0 57.833 12.833 73.5 38.5zM586 48
c-30 36.667 -45 91 -45 163s15 126.167 45 162.5s72 54.5 126 54.5s96.167 -18.167 126.5 -54.5s45.5 -90.5 45.5 -162.5s-15.167 -126.333 -45.5 -163s-72.5 -55 -126.5 -55s-96 18.333 -126 55zM786.5 89c15.667 25.333 23.5 66 23.5 122c0 54.667 -8 94.834 -24 120.501
s-40.667 38.5 -74 38.5s-57.833 -12.833 -73.5 -38.5s-23.5 -65.834 -23.5 -120.501c0 -55.333 7.83301 -95.833 23.5 -121.5s40.167 -38.5 73.5 -38.5c34 0 58.833 12.667 74.5 38z" />
    <glyph glyph-name="ampersand" unicode="&#x26;" horiz-adv-x="670" 
d="M680 47l-44.001 -56c-55.333 25.333 -102 57 -140 95c-28.667 -30 -61 -53 -97 -69s-75 -24 -117 -24c-45.333 0 -85.333 7.83301 -120 23.5s-61.5 37.5 -80.5 65.5s-28.5 60.333 -28.5 97c0 42.667 13 81.167 39 115.5s68 68.833 126 103.5
c-31.333 36 -53.166 66.167 -65.499 90.5s-18.5 49.5 -18.5 75.5c0 46.667 16 84.167 48 112.5s74.333 42.5 127 42.5c49.333 0 88.333 -12.833 117 -38.5s43 -60.5 43 -104.5c0 -35.333 -10.667 -67 -32 -95s-59 -59.333 -113 -94l168 -189c31.333 60.667 48 134 50 220h72
c-1.33301 -54 -8.33301 -104.167 -21 -150.5s-30.334 -87.5 -53.001 -123.5c34.667 -38 81.334 -70.333 140.001 -97zM238.999 631.5c-18 -17 -26.999 -39.502 -26.999 -67.502c0 -19.333 4.66699 -37.666 14 -54.999s27.666 -41.666 54.999 -72.999
c44 27.333 74.333 51 91 71s25 41.667 25 65c0 25.333 -8 45.833 -24 61.5s-37 23.5 -63 23.5c-29.333 0 -53 -8.5 -71 -25.5zM451 135.998l-190 213.001c-46.667 -28.667 -79.667 -55.834 -99 -81.501s-29 -54.5 -29 -86.5c0 -37.333 13.667 -67 41 -89s64 -33 110 -33
c65.333 0 121 25.667 167 77z" />
    <glyph glyph-name="quotesingle" unicode="'" horiz-adv-x="222" 
d="M85 432l-22 280h96l-20 -280h-54z" />
    <glyph glyph-name="parenleft" unicode="(" horiz-adv-x="317" 
d="M131 40.5c-18 72.333 -26.999 147.499 -26.999 225.499c0 77.333 9.16699 152.333 27.5 225s47.166 146.334 86.499 221.001h68c-36 -83.333 -61.333 -160.666 -76 -231.999s-22 -142.666 -22 -213.999c0 -70.667 7.33301 -141.834 22 -213.501
s39.667 -149.834 75 -234.501h-67c-40 76 -69 150.167 -87 222.5z" />
    <glyph glyph-name="parenright" unicode=")" horiz-adv-x="317" 
d="M32 -182c35.333 84.667 60.333 162.835 75 234.502s22 142.834 22 213.501c0 71.333 -7.33301 142.666 -22 213.999s-39.667 148.666 -75 231.999h68c39.333 -74.667 68 -148.334 86 -221.001s27 -147.667 27 -225c0 -78 -9 -153.167 -27 -225.5s-47 -146.5 -87 -222.5
h-67z" />
    <glyph glyph-name="asterisk" unicode="*" horiz-adv-x="455" 
d="M138 362l-50 36l97 124l-152 45l20 59l147 -53l-5 156h62l-5 -157l149 54l19 -59l-151 -45l97 -124l-51 -36l-88 131z" />
    <glyph glyph-name="plus" unicode="+" 
d="M546 319v-63h-215v-215h-62v215h-215v63h215v215h62v-215h215z" />
    <glyph glyph-name="comma" unicode="," horiz-adv-x="231" 
d="M167 103v-73c0 -28 -4.66699 -53.667 -14 -77s-25 -46 -47 -68l-38 29c26 30 40.667 58.667 44 86h-48v103h103z" />
    <glyph glyph-name="hyphen" unicode="-" horiz-adv-x="429" 
d="M73 235v67h283v-67h-283z" />
    <glyph glyph-name="period" unicode="." horiz-adv-x="231" 
d="M64 103h103v-103h-103v103z" />
    <glyph glyph-name="slash" unicode="/" horiz-adv-x="285" 
d="M51 -55h-74l257 804h75z" />
    <glyph glyph-name="zero" unicode="0" 
d="M114.5 84.5c-42.333 61.667 -63.5 152.168 -63.5 271.501s21.167 209.833 63.5 271.5s104.166 92.5 185.499 92.5s143.166 -30.833 185.499 -92.5s63.5 -151.834 63.5 -270.501c0 -119.333 -21.167 -210 -63.5 -272s-104.166 -93 -185.499 -93
s-143.166 30.833 -185.499 92.5zM425.5 133.001c27 48 40.5 122.667 40.5 224c0 100.667 -13.333 174.667 -40 222s-68.667 71 -126 71c-56.667 0 -98.5 -23.667 -125.5 -71s-40.5 -121.333 -40.5 -222s13.5 -175.167 40.5 -223.5s68.833 -72.5 125.5 -72.5
s98.5 24 125.5 72z" />
    <glyph glyph-name="one" unicode="1" 
d="M368 69h157v-69h-397v69h157v541l-146 -93v79l182 116h47v-643z" />
    <glyph glyph-name="two" unicode="2" 
d="M541 69l0.000976562 -68.998h-458v62l249 276c33.333 37.333 57.666 71 72.999 101s23 60 23 90c0 39.333 -11.333 69.5 -34 90.5s-55 31.5 -97 31.5c-68 0 -135.333 -27.333 -202 -82l-31 63c28 26.667 63.333 48 106 64s85.667 24 129 24
c65.333 0 117 -16.833 155 -50.5s57 -79.167 57 -136.5c0 -40.667 -9.16699 -79.834 -27.5 -117.501s-48.833 -79.834 -91.5 -126.501l-203 -220h352z" />
    <glyph glyph-name="three" unicode="3" 
d="M494 304c22 -29.333 32.998 -66.332 32.998 -110.999c0 -62 -21 -110.833 -63 -146.5s-99 -53.5 -171 -53.5c-46 0 -90.167 7.66699 -132.5 23s-78.166 37 -107.499 65l32 63c66 -54.667 134.667 -82 206 -82c50.667 0 89.167 11.333 115.5 34s39.5 56 39.5 100
c0 87.333 -54.667 131 -164 131h-82v69h66c52.667 0 93 11.667 121 35s42 56.666 42 99.999c0 38.667 -11.5 68.334 -34.5 89.001s-55.5 31 -97.5 31c-68 0 -135.333 -27.333 -202 -82l-31 63c28.667 27.333 63.834 48.833 105.501 64.5s85.167 23.5 130.5 23.5
c64 0 115.167 -16.333 153.5 -49s57.5 -76.667 57.5 -132c0 -40.667 -10 -76.334 -30 -107.001s-47.667 -52.667 -83 -66c42 -12 74 -32.667 96 -62z" />
    <glyph glyph-name="four" unicode="4" 
d="M567 223v-68h-108v-155h-82v155h-328v62l343 495h67v-489h108zM134 223h243v350z" />
    <glyph glyph-name="five" unicode="5" 
d="M447.5 418.5c33.667 -19 59.5 -45.499 77.5 -79.499s27 -73.333 27 -118s-9.83301 -84.334 -29.5 -119.001s-47.667 -61.5 -84 -80.5s-78.833 -28.5 -127.5 -28.5c-43.333 0 -86 7.83301 -128 23.5s-77.333 37.167 -106 64.5l31 63c66 -54.667 133.667 -82 203 -82
c50 0 89.167 14.167 117.5 42.5s42.5 66.833 42.5 115.5c0 47.333 -14 85.5 -42 114.5s-65.333 43.5 -112 43.5c-68 0 -122.333 -27.667 -163 -83h-57v417h427v-68h-345v-254c39.333 38 89.666 57 150.999 57c44.667 0 83.834 -9.5 117.501 -28.5z" />
    <glyph glyph-name="six" unicode="6" 
d="M445.5 418.5c33.667 -19 59.833 -45.665 78.5 -79.998s28 -73.5 28 -117.5s-9.83301 -83.333 -29.5 -118s-46.834 -61.834 -81.501 -81.501s-74 -29.5 -118 -29.5c-86 0 -152.333 30 -199 90s-70 145.333 -70 256c0 80 10.833 148.667 32.5 206s53 101 94 131
s90.167 45 147.5 45c41.333 0 81.5 -7.66699 120.5 -23s73.167 -37 102.5 -65l-31 -63c-33.333 28 -65.333 48.667 -96 62s-62 20 -94 20c-61.333 0 -109 -27.333 -143 -82s-51 -131.334 -51 -230.001v-15c15.333 38 40.333 68 75 90s74.334 33 119.001 33
c43.333 0 81.833 -9.5 115.5 -28.5zM428.999 104.502c28 29 42 67.499 42 115.499c0 47.333 -14.167 85.5 -42.5 114.5s-65.166 43.5 -110.499 43.5c-46.667 0 -84.667 -14.667 -114 -44s-44 -67.333 -44 -114c0 -47.333 14.667 -85.666 44 -114.999s67.666 -44 114.999 -44
c45.333 0 82 14.5 110 43.5z" />
    <glyph glyph-name="seven" unicode="7" 
d="M65 712h470v-61l-334 -651h-88l332 643h-380v69z" />
    <glyph glyph-name="eight" unicode="8" 
d="M516.5 300.5c25.667 -31 38.5 -68.166 38.5 -111.499c0 -60.667 -23 -108.5 -69 -143.5s-108 -52.5 -186 -52.5s-140 17.5 -186 52.5s-69 82.833 -69 143.5c0 43.333 13.167 80.666 39.5 111.999s62.5 53 108.5 65c-42.667 12.667 -75.334 33.5 -98.001 62.5
s-34 63.167 -34 102.5c0 38 10 71.167 30 99.5s48.167 50.333 84.5 66s77.833 23.5 124.5 23.5s88.167 -7.83301 124.5 -23.5s64.5 -37.667 84.5 -66s30 -61.5 30 -99.5c0 -39.333 -11.5 -73.5 -34.5 -102.5s-55.167 -49.833 -96.5 -62.5
c46.667 -12.667 82.834 -34.5 108.501 -65.5zM185.5 432.501c28.333 -23.667 66.5 -38.167 114.5 -43.5c48 5.33301 86.167 19.833 114.5 43.5s42.5 54.5 42.5 92.5c0 39.333 -13.833 70.333 -41.5 93s-66.167 34 -115.5 34s-87.833 -11.333 -115.5 -34
s-41.5 -53.667 -41.5 -93c0 -38 14.167 -68.833 42.5 -92.5zM429 95.001c30 22.667 45.002 55.667 45.002 99c0 39.333 -15.833 70.833 -47.5 94.5s-73.834 38.167 -126.501 43.5c-52.667 -5.33301 -94.834 -19.833 -126.501 -43.5s-47.5 -55.167 -47.5 -94.5
c0 -43.333 15 -76.333 45 -99s73 -34 129 -34s99 11.333 129 34z" />
    <glyph glyph-name="nine" unicode="9" 
d="M477 630c46.667 -60 69.999 -145.335 69.999 -256.002c0 -120.667 -24.167 -214.5 -72.5 -281.5s-115.833 -100.5 -202.5 -100.5c-40.667 0 -80.5 7.66699 -119.5 23s-73.5 37 -103.5 65l32 63c34 -28.667 66.333 -49.5 97 -62.5s61.667 -19.5 93 -19.5
c61.333 0 108.833 27.333 142.5 82s50.5 131.334 50.5 230.001v13c-15.333 -37.333 -40.333 -66.833 -75 -88.5s-74.334 -32.5 -119.001 -32.5c-43.333 0 -81.666 9.5 -114.999 28.5s-59.333 45.667 -78 80s-28 73.5 -28 117.5s9.83301 83.333 29.5 118
s46.834 61.834 81.501 81.501s74 29.5 118 29.5c86 0 152.333 -30 199 -90zM396.999 377.998c29.333 29.333 43.999 67.334 43.999 114.001c0 47.333 -14.667 85.666 -44 114.999s-67.666 44 -114.999 44c-45.333 0 -82 -14.5 -110 -43.5s-42 -67.5 -42 -115.5
c0 -47.333 14 -85.5 42 -114.5s65 -43.5 111 -43.5c46.667 0 84.667 14.667 114 44z" />
    <glyph glyph-name="colon" unicode=":" horiz-adv-x="231" 
d="M64 492h103v-104h-103v104zM64 103h103v-103h-103v103z" />
    <glyph glyph-name="semicolon" unicode=";" horiz-adv-x="231" 
d="M64 492h103v-104h-103v104zM64 103h103v-73c0 -28 -4.66699 -53.667 -14 -77s-25 -46 -47 -68l-38 29c26 30 40.667 58.667 44 86h-48v103z" />
    <glyph glyph-name="less" unicode="&#x3c;" 
d="M546 541v-68l-415 -186l415 -185v-70l-492 223v64z" />
    <glyph glyph-name="equal" unicode="=" 
d="M546 420v-63h-492v63h492zM546 218v-63h-492v63h492z" />
    <glyph glyph-name="greater" unicode="&#x3e;" 
d="M54 541l492 -222v-64l-492 -223v70l415 185l-415 186v68z" />
    <glyph glyph-name="question" unicode="?" horiz-adv-x="447" 
d="M157 710.5c24.667 6.33301 49 9.5 73 9.5c57.333 0 103.833 -14.5 139.5 -43.5s53.5 -67.167 53.5 -114.5c0 -24.667 -4.16699 -47.334 -12.5 -68.001s-18.5 -39.167 -30.5 -55.5s-28.333 -36.5 -49 -60.5c-28.667 -32 -50.834 -60.667 -66.501 -86
s-25.167 -54.666 -28.5 -87.999l-3 -18h-48v25c0 42 7.33301 77.5 22 106.5s36.334 61.5 65.001 97.5c22.667 28.667 39.5 53.167 50.5 73.5s16.5 43.166 16.5 68.499c0 28.667 -10 51.334 -30 68.001s-47.667 25 -83 25c-46.667 0 -92.667 -14 -138 -42v75
c21.333 12 44.333 21.167 69 27.5zM158 0v103h103v-103h-103z" />
    <glyph glyph-name="at" unicode="@" horiz-adv-x="935" 
d="M251 -99.5c-64.667 35.667 -114.329 85.833 -148.996 150.5s-52 139.667 -52 225c0 88.667 18.667 166.334 56 233.001s88.5 118.167 153.5 154.5s137.833 54.5 218.5 54.5c86 0 159.833 -17.667 221.5 -53s108.167 -81.333 139.5 -138s47 -116.667 47 -180
c0 -66 -9.83301 -120 -29.5 -162s-44.834 -72.5 -75.501 -91.5s-63.334 -28.5 -98.001 -28.5c-36 0 -64.333 7.83301 -85 23.5s-32 37.834 -34 66.501h-2c-16.667 -28 -37.834 -50 -63.501 -66s-55.5 -24 -89.5 -24c-44 0 -79.667 15.5 -107 46.5s-41 74.167 -41 129.5
c0 46 8.83301 89.167 26.5 129.5s42.667 72.666 75 96.999s69.5 36.5 111.5 36.5c32 0 59.667 -7.66699 83 -23s38.666 -35 45.999 -59h1l12 70h66l-48 -274c-2.66699 -18.667 -4 -30.667 -4 -36c0 -22.667 5.33301 -38.834 16 -48.501s27 -14.5 49 -14.5
c19.333 0 38.666 7.5 57.999 22.5s35.666 39.5 48.999 73.5s20 78 20 132c0 53.333 -12.667 103.666 -38 150.999s-64 85.666 -116 114.999s-115.333 44 -190 44c-68.667 0 -130.5 -15.5 -185.5 -46.5s-98.333 -75.167 -130 -132.5s-47.5 -124.666 -47.5 -201.999
c0 -74.667 14.5 -139.667 43.5 -195s70.833 -98.166 125.5 -128.499s119.334 -45.5 194.001 -45.5c56.667 0 105.834 8.16699 147.501 24.5s73.5 39.166 95.5 68.499h88c-28.667 -47.333 -71.667 -84.666 -129 -111.999s-124.666 -41 -201.999 -41
c-86.667 0 -162.334 17.833 -227.001 53.5zM511.005 149.499c24.667 20.333 43.334 46.667 56.001 79s19 66.5 19 102.5c0 38 -9.33301 67 -28 87s-44 30 -76 30s-59.833 -9.83301 -83.5 -29.5s-41.834 -45.167 -54.501 -76.5s-19 -64 -19 -98c0 -39.333 9.5 -70 28.5 -92
s42.167 -33 69.5 -33c34 0 63.333 10.167 88 30.5z" />
    <glyph glyph-name="A" unicode="A" horiz-adv-x="734" 
d="M632 0l-78 183h-372l-79 -183h-85l313 712h72l313 -712h-84zM211 251h314l-157 366z" />
    <glyph glyph-name="B" unicode="B" horiz-adv-x="681" 
d="M587 304.5c22.667 -29.667 33.998 -66.501 33.998 -110.501c0 -62 -20.667 -109.833 -62 -143.5s-99.666 -50.5 -174.999 -50.5h-296v712h286c72.667 0 129.167 -16.167 169.5 -48.5s60.5 -78.166 60.5 -137.499c0 -38 -9.83301 -70.833 -29.5 -98.5
s-47.167 -48.167 -82.5 -61.5c40.667 -11.333 72.334 -31.833 95.001 -61.5zM168.998 395.999l192.001 0.000976562c53.333 0 93.666 10.667 120.999 32s41 52.666 41 93.999c0 81.333 -54 122 -162 122h-192v-248zM500.499 99.5c26.333 21 39.5 53.167 39.5 96.5
c0 87.333 -54.333 131 -163 131h-208v-259h208c56 0 97.167 10.5 123.5 31.5z" />
    <glyph glyph-name="C" unicode="C" horiz-adv-x="684" 
d="M216.5 36c-49.667 29.333 -87.835 71.501 -114.502 126.501s-40 119.833 -40 194.5s13.333 139.167 40 193.5s64.834 96.166 114.501 125.499s108.167 44 175.5 44c49.333 0 94.5 -7.5 135.5 -22.5s76.5 -37.5 106.5 -67.5l-31 -63c-34 29.333 -67.5 50.333 -100.5 63
s-69.5 19 -109.5 19c-78 0 -138.5 -25.333 -181.5 -76s-64.5 -122.667 -64.5 -216c0 -94 21.333 -166.5 64 -217.5s103.334 -76.5 182.001 -76.5c40 0 76.5 6.33301 109.5 19s66.5 33.667 100.5 63l31 -63c-30 -30 -65.5 -52.5 -106.5 -67.5s-86.167 -22.5 -135.5 -22.5
c-67.333 0 -125.833 14.667 -175.5 44z" />
    <glyph glyph-name="D" unicode="D" horiz-adv-x="746" 
d="M88 712h239c114 0 202.167 -30.833 264.5 -92.5s93.5 -149.167 93.5 -262.5c0 -114 -31.167 -202 -93.5 -264s-150.5 -93 -264.5 -93h-239v712zM322 70c92 0 161.167 24 207.5 72s69.5 119.667 69.5 215c0 190 -92.333 285 -277 285h-152v-572h152z" />
    <glyph glyph-name="E" unicode="E" horiz-adv-x="588" 
d="M88 0v712h450v-68h-369v-248h349v-69h-349v-259h369v-68h-450z" />
    <glyph glyph-name="F" unicode="F" horiz-adv-x="563" 
d="M88 0v712h440v-69h-359v-247h339v-69h-339v-327h-81z" />
    <glyph glyph-name="G" unicode="G" horiz-adv-x="731" 
d="M651 371v-329.999c-28 -14.667 -64.667 -26.5 -110 -35.5s-91.333 -13.5 -138 -13.5c-70.667 0 -131.667 14.5 -183 43.5s-90.5 70.833 -117.5 125.5s-40.5 120 -40.5 196c0 75.333 13.5 140.166 40.5 194.499s65.667 96 116 125s109.833 43.5 178.5 43.5
c50 0 95.833 -7.5 137.5 -22.5s77.5 -37.5 107.5 -67.5l-32 -63c-34.667 29.333 -68.5 50.5 -101.5 63.5s-70.167 19.5 -111.5 19.5c-80.667 0 -142.5 -25.167 -185.5 -75.5s-64.5 -122.833 -64.5 -217.5c0 -96.667 22 -170.167 66 -220.5s108 -75.5 192 -75.5
c59.333 0 116.333 9.33301 171 28v217h-177v65h252z" />
    <glyph glyph-name="H" unicode="H" horiz-adv-x="766" 
d="M596 712h82v-712h-82v327h-427v-327h-81v712h81v-316h427v316z" />
    <glyph glyph-name="I" unicode="I" horiz-adv-x="258" 
d="M88 0v712h82v-712h-82z" />
    <glyph glyph-name="J" unicode="J" horiz-adv-x="329" 
d="M-5 -107c30 -5.33301 54 -8 72 -8c34 0 57.833 9.5 71.5 28.5s20.5 51.5 20.5 97.5v701h82v-702c0 -69.333 -12.5 -119.333 -37.5 -150s-66.167 -46 -123.5 -46c-22.667 0 -51 2.66699 -85 8v71z" />
    <glyph glyph-name="K" unicode="K" horiz-adv-x="634" 
d="M644 0h-107l-367 339v-339h-82v712h82v-327l350 327h105l-372 -347z" />
    <glyph glyph-name="L" unicode="L" horiz-adv-x="545" 
d="M88 0v712h82v-642h357v-70h-439z" />
    <glyph glyph-name="M" unicode="M" horiz-adv-x="849" 
d="M693 712h68v-712h-76v529l-231 -529h-58l-233 525l1 -525h-76v712h68l270 -614z" />
    <glyph glyph-name="N" unicode="N" horiz-adv-x="746" 
d="M581 712h78v-712h-64l-430 573v-573h-77v712h63l430 -573v573z" />
    <glyph glyph-name="O" unicode="O" horiz-adv-x="772" 
d="M214 36c-48.667 29.333 -86.1689 71.501 -112.502 126.501s-39.5 119.5 -39.5 193.5c0 74.667 13 139.334 39 194.001s63.333 96.667 112 126s106.334 44 173.001 44s124.334 -14.667 173.001 -44s86 -71.333 112 -126s39 -119 39 -193
c0 -74.667 -13.167 -139.334 -39.5 -194.001s-63.833 -96.834 -112.5 -126.501s-106 -44.5 -172 -44.5s-123.333 14.667 -172 44zM561.998 139.001c42 51.333 63 124 63 218s-20.833 166.333 -62.5 217s-100.5 76 -176.5 76s-135 -25.5 -177 -76.5s-63 -123.167 -63 -216.5
c0 -94 21 -166.667 63 -218s101 -77 177 -77c75.333 0 134 25.667 176 77z" />
    <glyph glyph-name="P" unicode="P" horiz-adv-x="651" 
d="M88 712h284c73.333 0 130.5 -17.667 171.5 -53s61.5 -84 61.5 -146s-20.667 -110.833 -62 -146.5s-98.333 -53.5 -171 -53.5h-202v-313h-82v712zM365 381c52.667 0 92.334 11.332 119.001 33.999s40 55.334 40 98.001s-13.333 75.167 -40 97.5
s-66.334 33.5 -119.001 33.5h-195v-263h195z" />
    <glyph glyph-name="Q" unicode="Q" horiz-adv-x="772" 
d="M635 -139l-57 -52.001c-28 21.333 -56 48.5 -84 81.5s-52.333 67.5 -73 103.5c-14.667 -1.33301 -26.334 -2 -35.001 -2c-66 0 -123.333 14.667 -172 44s-86.167 71.5 -112.5 126.5s-39.5 119.5 -39.5 193.5c0 74.667 13 139.334 39 194.001s63.333 96.667 112 126
s106.334 44 173.001 44s124.334 -14.667 173.001 -44s86 -71.333 112 -126s39 -119 39 -193c0 -87.333 -17.833 -160.833 -53.5 -220.5s-85.834 -101.167 -150.501 -124.5c29.333 -52.667 72.333 -103 129 -151zM209 138.999c42 -51.333 101 -77 177 -77
c75.333 0 134 25.667 176 77s63 124 63 218s-20.833 166.333 -62.5 217s-100.5 76 -176.5 76s-135 -25.5 -177 -76.5s-63 -123.167 -63 -216.5c0 -94 21 -166.667 63 -218z" />
    <glyph glyph-name="R" unicode="R" horiz-adv-x="693" 
d="M647 0h-87.001l-88 237c-10.667 29.333 -25.5 49 -44.5 59s-45.833 15 -80.5 15h-178v-311h-81v712h283c76.667 0 135.5 -17 176.5 -51s61.5 -83 61.5 -147c0 -46.667 -12.167 -85.834 -36.5 -117.501s-59.5 -54.167 -105.5 -67.5
c20.667 -3.33301 38.334 -12.166 53.001 -26.499s27 -34.833 37 -61.5zM363.999 379c109.333 0 164 44.667 164 134c0 44 -13.333 76.833 -40 98.5s-68 32.5 -124 32.5h-195v-265h195z" />
    <glyph glyph-name="S" unicode="S" horiz-adv-x="623" 
d="M48 82l30.9971 62.999c35.333 -30 71.333 -51.333 108 -64s79.334 -19 128.001 -19c57.333 0 101.5 11.167 132.5 33.5s46.5 53.833 46.5 94.5c0 24 -7.5 43.5 -22.5 58.5s-34.667 26.833 -59 35.5s-56.833 17.667 -97.5 27c-54.667 12 -99.667 25 -135 39
s-64 34.167 -86 60.5s-33 60.833 -33 103.5c0 40.667 10.667 76.5 32 107.5s51.5 55.167 90.5 72.5s84.5 26 136.5 26c49.333 0 95.333 -7.66699 138 -23s78.667 -37.666 108 -66.999l-32 -63c-33.333 28.667 -67.166 49.667 -101.499 63s-71.833 20 -112.5 20
c-55.333 0 -98.666 -11.833 -129.999 -35.5s-47 -56.167 -47 -97.5c0 -36 13.667 -63 41 -81s69.333 -33.667 126 -47c61.333 -14.667 109.5 -28.167 144.5 -40.5s64.167 -31 87.5 -56s35 -58.167 35 -99.5c0 -40 -10.667 -75.167 -32 -105.5s-51.833 -53.833 -91.5 -70.5
s-86.167 -25 -139.5 -25c-111.333 0 -200 30 -266 90z" />
    <glyph glyph-name="T" unicode="T" horiz-adv-x="603" 
d="M260 0v642h-248v70h579v-70h-248v-642h-83z" />
    <glyph glyph-name="U" unicode="U" horiz-adv-x="731" 
d="M154.5 64.5c-47.667 48.333 -71.5 119.833 -71.5 214.5v433h81v-440c0 -69.333 17 -121.666 51 -156.999s84.333 -53 151 -53c66 0 115.833 17.667 149.5 53s50.5 87.666 50.5 156.999v440h82v-433c0 -94 -24 -165.333 -72 -214s-118 -73 -210 -73
c-93.333 0 -163.833 24.167 -211.5 72.5z" />
    <glyph glyph-name="V" unicode="V" horiz-adv-x="697" 
d="M611 712h85l-311 -712h-72l-311 712h87l261 -608z" />
    <glyph glyph-name="W" unicode="W" horiz-adv-x="1112" 
d="M997 712h81l-249 -712h-70l-203 583l-204 -583h-69l-250 712h84l202 -595l207 595l63 -1l204 -596z" />
    <glyph glyph-name="X" unicode="X" horiz-adv-x="652" 
d="M373 364l271 -364h-97l-221 302l-220 -302h-98l271 365l-258 347h98l208 -286l208 286h97z" />
    <glyph glyph-name="Y" unicode="Y" horiz-adv-x="607" 
d="M624 712l-280 -424v-288h-82v289l-280 423h96l226 -350l226 350h94z" />
    <glyph glyph-name="Z" unicode="Z" horiz-adv-x="596" 
d="M140 69h418v-69h-513v61l408 582h-408v69h503v-60z" />
    <glyph glyph-name="bracketleft" unicode="[" horiz-adv-x="317" 
d="M110 -182v894h199v-64h-118v-765h118v-65h-199z" />
    <glyph glyph-name="backslash" unicode="\" horiz-adv-x="285" 
d="M233 -55l-256 804h74l257 -804h-75z" />
    <glyph glyph-name="bracketright" unicode="]" horiz-adv-x="317" 
d="M207 -182h-199v65h118v765h-118v64h199v-894z" />
    <glyph glyph-name="asciicircum" unicode="^" 
d="M555 142h-69l-186 415l-186 -415h-68l222 493h64z" />
    <glyph glyph-name="underscore" unicode="_" horiz-adv-x="505" 
d="M8 -53v53h489v-53h-489z" />
    <glyph glyph-name="grave" unicode="`" horiz-adv-x="300" 
d="M123 557l-137 204h94l100 -204h-57z" />
    <glyph glyph-name="a" unicode="a" 
d="M521 503l0.00292969 -503.001h-80v91c-14.667 -31.333 -36.834 -55.5 -66.501 -72.5s-64.167 -25.5 -103.5 -25.5c-44.667 0 -83.834 10.667 -117.501 32s-59.667 51.5 -78 90.5s-27.5 84.5 -27.5 136.5s9.33301 97.833 28 137.5s44.834 70.5 78.501 92.5
s72.5 33 116.5 33c39.333 0 73.666 -8.66699 102.999 -26s51.666 -41.666 66.999 -72.999v87h80zM401.003 110.499c26.667 33.667 40 81.498 40 143.498s-13.333 109.667 -40 143s-64.667 50 -114 50s-87.833 -17.167 -115.5 -51.5s-41.5 -82.166 -41.5 -143.499
s13.667 -108.666 41 -141.999s66 -50 116 -50c49.333 0 87.333 16.833 114 50.5z" />
    <glyph glyph-name="b" unicode="b" 
d="M446 483c34 -21.333 60.3301 -51.5 78.9971 -90.5s28 -84.5 28 -136.5s-9.33301 -97.833 -28 -137.5s-45 -70.5 -79 -92.5s-73 -33 -117 -33c-39.333 0 -73.666 8.66699 -102.999 26s-51.666 42 -66.999 74v-93h-81v736h81v-322c14.667 32.667 36.834 57.667 66.501 75
s64.167 26 103.5 26c44 0 83 -10.667 117 -32zM427.997 111.5c27.333 34.333 41 82.5 41 144.5c0 60.667 -13.5 107.667 -40.5 141s-65.167 50 -114.5 50c-50 0 -88.333 -16.667 -115 -50s-40 -81 -40 -143s13.333 -109.833 40 -143.5s65 -50.5 115 -50.5
c48.667 0 86.667 17.167 114 51.5z" />
    <glyph glyph-name="c" unicode="c" horiz-adv-x="495" 
d="M161.5 25c-36.333 21.333 -64.3359 51.501 -84.0029 90.501s-29.5 84.5 -29.5 136.5s10 97.833 30 137.5s48.5 70.5 85.5 92.5s80.167 33 129.5 33c34 0 66.833 -5.83301 98.5 -17.5s57.834 -27.834 78.501 -48.501l-27 -60c-25.333 20 -49.833 34.667 -73.5 44
s-47.834 14 -72.501 14c-51.333 0 -91.666 -17.167 -120.999 -51.5s-44 -82.166 -44 -143.499c0 -60.667 14.5 -107.834 43.5 -141.501s69.5 -50.5 121.5 -50.5c24.667 0 48.834 4.66699 72.501 14s48.167 24 73.5 44l27 -60c-21.333 -20 -48.166 -35.833 -80.499 -47.5
s-65.833 -17.5 -100.5 -17.5c-48.667 0 -91.167 10.667 -127.5 32z" />
    <glyph glyph-name="d" unicode="d" 
d="M521 736l0.00292969 -736h-80v91c-14.667 -31.333 -36.834 -55.5 -66.501 -72.5s-64.167 -25.5 -103.5 -25.5c-44 0 -82.833 11 -116.5 33s-59.834 52.833 -78.501 92.5s-28 85.5 -28 137.5s9.16699 97.5 27.5 136.5s44.5 69.167 78.5 90.5s73 32 117 32
c39.333 0 73.666 -8.5 102.999 -25.5s51.333 -40.833 66 -71.5v318h81zM401.003 110.5c26.667 33.667 40 81.5 40 143.5c0 61.333 -13.333 108.833 -40 142.5s-64.667 50.5 -114 50.5s-87.833 -16.667 -115.5 -50s-41.5 -80.333 -41.5 -141
c0 -62 13.833 -110.167 41.5 -144.5s66.167 -51.5 115.5 -51.5s87.333 16.833 114 50.5z" />
    <glyph glyph-name="e" unicode="e" horiz-adv-x="544" 
d="M499 254l-368.999 0.000976562c0.666992 -64 15.5 -112.333 44.5 -145s71.167 -49 126.5 -49c58.667 0 112.667 19.667 162 59l27 -59c-22 -20.667 -50.167 -37 -84.5 -49s-69.5 -18 -105.5 -18c-78.667 0 -140.334 23.167 -185.001 69.5s-67 109.833 -67 190.5
c0 51.333 10 96.833 30 136.5s48 70.5 84 92.5s77 33 123 33c66.667 0 119 -21.833 157 -65.5s57 -103.834 57 -180.501v-15zM183.501 414.001c-26.333 -25.333 -43.167 -61 -50.5 -107h293c-4 47.333 -17.833 83.333 -41.5 108s-56.5 37 -98.5 37
s-76.167 -12.667 -102.5 -38z" />
    <glyph glyph-name="f" unicode="f" horiz-adv-x="337" 
d="M208.5 647.5c-15 -15 -22.499 -40.833 -22.499 -77.5v-67h123v-64h-123v-439h-81v439h-98v64h98v77c0 52.667 13.167 92.5 39.5 119.5s63.166 40.5 110.499 40.5c23.333 0 46 -3 68 -9v-69c-18.667 5.33301 -36 8 -52 8c-26.667 0 -47.5 -7.5 -62.5 -22.5z" />
    <glyph glyph-name="g" unicode="g" horiz-adv-x="604" 
d="M526 503v-499.002c0 -74.667 -19.167 -131.167 -57.5 -169.5s-94.833 -57.5 -169.5 -57.5c-76.667 0 -142.667 17.333 -198 52l14 66c32 -18 62.167 -31 90.5 -39s59.5 -12 93.5 -12c48.667 0 85.334 12.833 110.001 38.5s37 63.834 37 114.501v119
c-15.333 -32 -37.833 -56.833 -67.5 -74.5s-64.834 -26.5 -105.501 -26.5c-44 0 -83.167 10.333 -117.5 31s-60.833 50 -79.5 88s-28 81.667 -28 131s9.33301 93 28 131s45.167 67.333 79.5 88s73.5 31 117.5 31c40 0 74.833 -8.66699 104.5 -26
s52.167 -41.666 67.5 -72.999v87h81zM403.5 131.498c27.667 32.333 41.5 76.833 41.5 133.5s-13.833 101.167 -41.5 133.5s-65.834 48.5 -114.501 48.5c-49.333 0 -88.166 -16.167 -116.499 -48.5s-42.5 -76.833 -42.5 -133.5s14.167 -101.167 42.5 -133.5
s67.166 -48.5 116.499 -48.5c48.667 0 86.834 16.167 114.501 48.5z" />
    <glyph glyph-name="h" unicode="h" horiz-adv-x="585" 
d="M510 316v-316h-81v312c0 46.667 -9.33301 80.834 -28 102.501s-48 32.5 -88 32.5c-46.667 0 -84 -14.333 -112 -43s-42 -67.334 -42 -116.001v-288h-81v736h81v-315c16 30.667 38.833 54 68.5 70s63.5 24 101.5 24c120.667 0 181 -66.333 181 -199z" />
    <glyph glyph-name="i" unicode="i" horiz-adv-x="238" 
d="M78 0v503h81v-503h-81zM70 716h99v-92h-99v92z" />
    <glyph glyph-name="j" unicode="j" horiz-adv-x="238" 
d="M-6 -150c56 0 84 33.333 84 100v553h81v-563c0 -52.667 -13.167 -92.5 -39.5 -119.5s-62.5 -40.5 -108.5 -40.5c-22 0 -44 3 -66 9v69c18 -5.33301 34.333 -8 49 -8zM69 716h99v-92h-99v92z" />
    <glyph glyph-name="k" unicode="k" horiz-adv-x="515" 
d="M523 0h-106l-258 242v-242h-81v736h81v-464l237 230h103l-252 -241z" />
    <glyph glyph-name="l" unicode="l" horiz-adv-x="238" 
d="M78 0v736h81v-736h-81z" />
    <glyph glyph-name="m" unicode="m" horiz-adv-x="879" 
d="M803 316v-316h-81v312c0 47.333 -8.16699 81.666 -24.5 102.999s-42.833 32 -79.5 32c-42.667 0 -76 -14.333 -100 -43s-36 -67.667 -36 -117v-287h-81v312c0 46.667 -8.33301 80.834 -25 102.501s-43.334 32.5 -80.001 32.5c-42.667 0 -76.167 -14.333 -100.5 -43
s-36.5 -67.667 -36.5 -117v-287h-81v362c0 52 -2.66699 99 -8 141h77l8 -88c14 32 34.833 56.667 62.5 74s59.834 26 96.501 26c40 0 72.667 -8 98 -24s44 -40.667 56 -74c15.333 30 37.833 53.833 67.5 71.5s63.167 26.5 100.5 26.5c111.333 0 167 -66.333 167 -199z" />
    <glyph glyph-name="n" unicode="n" horiz-adv-x="585" 
d="M510 316v-316.001h-81v312c0 46.667 -9.33301 80.834 -28 102.501s-48 32.5 -88 32.5c-46.667 0 -84 -14.333 -112 -43s-42 -67.334 -42 -116.001v-288h-81v362c0 52 -2.66699 99 -8 141h77l8 -90c15.333 32.667 38.333 57.834 69 75.501s65.667 26.5 105 26.5
c120.667 0 181 -66.333 181 -199z" />
    <glyph glyph-name="o" unicode="o" horiz-adv-x="572" 
d="M161 25c-36 21.333 -63.833 51.666 -83.5 90.999s-29.5 85.333 -29.5 138s9.83301 98.667 29.5 138s47.5 69.666 83.5 90.999s77.667 32 125 32s89 -10.667 125 -32s63.833 -51.666 83.5 -90.999s29.5 -85.333 29.5 -138s-9.83301 -98.667 -29.5 -138
s-47.5 -69.666 -83.5 -90.999s-77.667 -32 -125 -32s-89 10.667 -125 32zM401 109.5c26.667 33 39.999 81.167 39.999 144.5c0 61.333 -13.667 108.833 -41 142.5s-65.333 50.5 -114 50.5c-49.333 0 -87.666 -16.833 -114.999 -50.5s-41 -81.167 -41 -142.5
c0 -63.333 13.5 -111.5 40.5 -144.5s65.5 -49.5 115.5 -49.5s88.333 16.5 115 49.5z" />
    <glyph glyph-name="p" unicode="p" 
d="M446 482c34 -22 60.334 -52.833 79.001 -92.5s28 -85.5 28 -137.5s-9.33301 -97.5 -28 -136.5s-44.834 -69.167 -78.501 -90.5s-72.834 -32 -117.501 -32c-39.333 0 -73.666 8.66699 -102.999 26s-51.666 42 -66.999 74v-309h-81v578c0 52 -2.66699 99 -8 141h77l8 -97
c14 34.667 36.167 61.5 66.5 80.5s66.166 28.5 107.499 28.5c44 0 83 -11 117 -33zM428.501 110c27 33.333 40.5 80.668 40.5 142.001s-13.667 109.166 -41 143.499s-65.333 51.5 -114 51.5c-50 0 -88.333 -16.667 -115 -50s-40 -81 -40 -143s13.333 -109.833 40 -143.5
s65 -50.5 115 -50.5c49.333 0 87.5 16.667 114.5 50z" />
    <glyph glyph-name="q" unicode="q" 
d="M529 503c-5.33301 -42 -8.00098 -88.999 -8.00098 -140.999v-578h-81v305c-14.667 -30.667 -36.667 -54.334 -66 -71.001s-63.666 -25 -102.999 -25c-44.667 0 -83.834 10.667 -117.501 32s-59.667 51.5 -78 90.5s-27.5 84.5 -27.5 136.5s9.33301 97.833 28 137.5
s44.834 70.5 78.501 92.5s72.5 33 116.5 33c40.667 0 76 -9.16699 106 -27.5s52.333 -44.5 67 -78.5l10 94h75zM400.999 110.501c26.667 33.667 40 81.498 40 143.498s-13.333 109.667 -40 143s-64.667 50 -114 50s-87.833 -17.167 -115.5 -51.5
s-41.5 -82.166 -41.5 -143.499s13.667 -108.666 41 -141.999s66 -50 116 -50c49.333 0 87.333 16.833 114 50.5z" />
    <glyph glyph-name="r" unicode="r" horiz-adv-x="362" 
d="M358 509l-1.99902 -74.001c-15.333 5.33301 -33 8 -53 8c-48.667 0 -84.834 -15.167 -108.501 -45.5s-35.5 -67.166 -35.5 -110.499v-287h-81v362c0 52 -2.66699 99 -8 141h77l8 -93c12.667 34 33 60 61 78s60 27 96 27c16.667 0 32 -2 46 -6z" />
    <glyph glyph-name="s" unicode="s" horiz-adv-x="496" 
d="M47 58l27.002 59.999c27.333 -21.333 55 -36.666 83 -45.999s59.333 -14 94 -14c38 0 66.833 6.5 86.5 19.5s29.5 31.833 29.5 56.5c0 20 -6.66699 36 -20 48s-35.333 21.333 -66 28l-85 20c-42 9.33301 -74.5 26 -97.5 50s-34.5 52.667 -34.5 86
c0 44 17.667 79.833 53 107.5s82 41.5 140 41.5c35.333 0 68.666 -5.66699 99.999 -17s57.666 -27.666 78.999 -48.999l-27 -59c-47.333 39.333 -98 59 -152 59c-36 0 -63.833 -6.83301 -83.5 -20.5s-29.5 -32.834 -29.5 -57.501c0 -20.667 6.16699 -37 18.5 -49
s32.166 -21.333 59.499 -28l85 -21c46.667 -10.667 81.334 -27.167 104.001 -49.5s34 -51.5 34 -87.5c0 -43.333 -17.667 -78 -53 -104s-83.333 -39 -144 -39c-84.667 0 -151.667 21.667 -201 65z" />
    <glyph glyph-name="t" unicode="t" horiz-adv-x="350" 
d="M186 439v-275c0 -37.333 7.66699 -63.5 23 -78.5s37 -22.5 65 -22.5c18.667 0 36.667 3 54 9v-69c-20.667 -6.66699 -44 -10 -70 -10c-48 0 -85.5 13.5 -112.5 40.5s-40.5 66.833 -40.5 119.5v286h-98v64h98v129l81 29v-158h144v-64h-144z" />
    <glyph glyph-name="u" unicode="u" horiz-adv-x="577" 
d="M499 503v-503h-79v87c-16 -30.667 -38.333 -54 -67 -70s-61 -24 -97 -24c-59.333 0 -104.333 16.667 -135 50s-46 82.666 -46 147.999v312h81v-310c0 -45.333 9.33301 -78.666 28 -99.999s47 -32 85 -32c44.667 0 80.667 14.5 108 43.5s41 67.167 41 114.5v284h81z" />
    <glyph glyph-name="v" unicode="v" horiz-adv-x="531" 
d="M439 502h81l-217 -502h-77l-214 502h85l170 -414z" />
    <glyph glyph-name="w" unicode="w" horiz-adv-x="869" 
d="M762 503h80l-186 -503h-78l-144 393l-143 -393h-78l-186 503h85l142 -406l147 406h71l145 -407z" />
    <glyph glyph-name="x" unicode="x" horiz-adv-x="535" 
d="M316 259l207 -259h-97l-159 198l-157 -198h-99l209 259l-197 244h98l146 -185l146 185h99z" />
    <glyph glyph-name="y" unicode="y" horiz-adv-x="531" 
d="M520 503l-234.999 -549.002c-24.667 -57.333 -55.667 -99.333 -93 -126s-83.333 -45 -138 -55l-17 63c47.333 10.667 83.166 24.834 107.499 42.501s44.5 44.834 60.5 81.501l20 45l-213 498h85l170 -415l172 415h81z" />
    <glyph glyph-name="z" unicode="z" horiz-adv-x="518" 
d="M150 64h325v-64h-425v56l317 383h-306v64h403v-59z" />
    <glyph glyph-name="braceleft" unicode="{" horiz-adv-x="354" 
d="M206.5 299.5c-14.333 -17.667 -31.833 -28.833 -52.5 -33.5c20.667 -5.33301 38.167 -17 52.5 -35s21.5 -41.667 21.5 -71v-197c0 -26 6 -45.833 18 -59.5s28.333 -20.5 49 -20.5h51v-65h-59c-45.333 0 -80 11.667 -104 35s-36 57 -36 101v192
c0 29.333 -5.16699 51 -15.5 65s-28.5 23.667 -54.5 29l-28 7v37l28 7c26 5.33301 44.167 15 54.5 29s15.5 35.667 15.5 65v191c0 43.333 12.667 76.833 38 100.5s59.333 35.5 102 35.5h59v-64h-51c-20.667 0 -37 -7 -49 -21s-18 -34 -18 -60v-196
c0 -30 -7.16699 -53.833 -21.5 -71.5z" />
    <glyph glyph-name="bar" unicode="|" horiz-adv-x="264" 
d="M93 -182v894h78v-894h-78z" />
    <glyph glyph-name="braceright" unicode="}" horiz-adv-x="355" 
d="M305 284v-37.001l-27 -7c-26.667 -5.33301 -45.167 -14.833 -55.5 -28.5s-15.5 -35.5 -15.5 -65.5v-192c0 -44 -12 -77.667 -36 -101s-58.667 -35 -104 -35h-59v65h52c20 0 36 6.83301 48 20.5s18 33.5 18 59.5v197c0 29.333 7.33301 53 22 71s32 29.667 52 35
c-20 4.66699 -37.333 15.834 -52 33.501s-22 41.5 -22 71.5v196c0 26 -6 46 -18 60s-28 21 -48 21h-52v64h59c42.667 0 76.667 -11.833 102 -35.5s38 -57.167 38 -100.5v-191c0 -30 5.16699 -51.833 15.5 -65.5s28.833 -23.167 55.5 -28.5z" />
    <glyph glyph-name="asciitilde" unicode="~" 
d="M546 316c-12.667 -31.333 -30 -55.668 -52 -73.001s-48 -26 -78 -26c-22 0 -43 4 -63 12s-44 19.333 -72 34c-22 12 -39.667 20.833 -53 26.5s-26.333 8.5 -39 8.5c-21.333 0 -38.666 -5.83301 -51.999 -17.5s-24.333 -28.167 -33 -49.5l-50 28
c12 31.333 29.167 55.5 51.5 72.5s48.5 25.5 78.5 25.5c22 0 43 -4 63 -12s44 -19.333 72 -34c20.667 -11.333 38 -19.833 52 -25.5s27.333 -8.5 40 -8.5c21.333 0 38.666 5.83301 51.999 17.5s24.333 27.834 33 48.501z" />
    <glyph glyph-name="uni00A0" unicode="&#xa0;" horiz-adv-x="261" 
 />
    <glyph glyph-name="exclamdown" unicode="&#xa1;" horiz-adv-x="231" 
d="M64 388v104h103v-104h-103zM90 304h50l26 -486h-101z" />
    <glyph glyph-name="cent" unicode="&#xa2;" 
d="M514 58c-17.333 -16.667 -38.832 -30.498 -64.499 -41.498s-52.834 -18.167 -81.501 -21.5v-114h-69v114c-62.667 7.33301 -112.834 34.166 -150.501 80.499s-56.5 105.166 -56.5 176.499c0 46.667 8.66699 88.667 26 126s41.5 67.666 72.5 90.999
s67.167 37.666 108.5 42.999v114h69v-113c29.333 -3.33301 56.833 -10.5 82.5 -21.5s46.834 -25.167 63.501 -42.5l-27 -60c-40.667 32.667 -80.334 51.334 -119.001 56.001v-383c38.667 4.66699 78.334 23.334 119.001 56.001zM208.001 126.502
c21.333 -32.333 51.668 -52.834 91.001 -61.501v377c-38.667 -9.33301 -68.834 -30.5 -90.501 -63.5s-32.5 -75.167 -32.5 -126.5s10.667 -93.166 32 -125.499z" />
    <glyph glyph-name="sterling" unicode="&#xa3;" 
d="M211.5 126c-10.333 -24 -27.833 -43 -52.5 -57h404v-69h-518v57c36 17.333 61.667 37 77 59s23 50.667 23 86v125h-100v59h100v140c0 60 17.667 107.333 53 142s83.333 52 144 52c42.667 0 83.5 -7.66699 122.5 -23s73.5 -37.666 103.5 -66.999l-33 -63
c-28.667 27.333 -59.167 48.166 -91.5 62.499s-64.833 21.5 -97.5 21.5c-38.667 0 -68.167 -11.167 -88.5 -33.5s-30.5 -54.833 -30.5 -97.5v-134h182v-59h-182v-104c0 -40.667 -5.16699 -73 -15.5 -97z" />
    <glyph glyph-name="currency" unicode="&#xa4;" 
d="M529.5 164.5c-9 -26.333 -21.834 -50.167 -38.501 -71.5l53 -56l-42 -42l-53 54c-21.333 -16.667 -44.666 -29.5 -69.999 -38.5s-51.666 -13.5 -78.999 -13.5c-56.667 0 -106.667 18 -150 54l-55 -56l-42 42l55 57c-34 44.667 -51 95.667 -51 153s17 108.333 51 153
l-55 57l43 44l54 -57c43.333 36 93.333 54 150 54c55.333 0 104.666 -17.333 147.999 -52l53 55l44 -44l-53 -55c34 -46 51 -97.667 51 -155c0 -28.667 -4.5 -56.167 -13.5 -82.5zM385.499 88.499c26.333 16.333 47.166 38.5 62.499 66.5s23 58.667 23 92
s-7.66699 64 -23 92s-36.166 50.167 -62.499 66.5s-55.166 24.5 -86.499 24.5s-60 -8.16699 -86 -24.5s-46.667 -38.5 -62 -66.5s-23 -58.667 -23 -92s7.66699 -64 23 -92s36 -50.167 62 -66.5s54.667 -24.5 86 -24.5s60.166 8.16699 86.499 24.5z" />
    <glyph glyph-name="yen" unicode="&#xa5;" 
d="M608 712l-232 -323h154v-60h-189v-93h189v-59h-189v-177h-82v177h-189v59h189v93h-189v60h154l-232 323h93l215 -304l215 304h93z" />
    <glyph glyph-name="brokenbar" unicode="&#xa6;" horiz-adv-x="264" 
d="M93 375v337h78v-337h-78zM93 -182v338h78v-338h-78z" />
    <glyph glyph-name="section" unicode="&#xa7;" horiz-adv-x="542" 
d="M485.5 126.5c-10.333 -22.333 -24.834 -41.834 -43.501 -58.501c12 -22 18 -48.667 18 -80c0 -54 -17.5 -97 -52.5 -129s-82.5 -48 -142.5 -48c-82 0 -149 21.667 -201 65l27 60c28.667 -20.667 56.334 -35.5 83.001 -44.5s55.667 -13.5 87 -13.5
c37.333 0 66.5 9.16699 87.5 27.5s31.5 44.5 31.5 78.5c0 27.333 -7 50 -21 68s-37.333 35.333 -70 52l-97 48c-54 26 -92.667 53.167 -116 81.5s-35 62.166 -35 101.499c0 24.667 5.16699 48.5 15.5 71.5s24.5 42.167 42.5 57.5c-11.333 22 -17 48 -17 78
c0 54 18 96.833 54 128.5s84.333 47.834 145 48.501c33.333 0 65.5 -5.66699 96.5 -17s56.833 -27 77.5 -47l-27 -59c-50 38 -98.333 57 -145 57c-38.667 0 -68.5 -9.16699 -89.5 -27.5s-31.5 -44.833 -31.5 -79.5c0 -26.667 7 -49 21 -67s37.333 -35.333 70 -52l97 -48
c54 -27.333 92.667 -55 116 -83s35 -61.667 35 -101c0 -23.333 -5.16699 -46.166 -15.5 -68.499zM401.999 117.999c14 21.333 21 44.666 21 69.999c0 24 -8 45.167 -24 63.5s-43.333 37.5 -82 57.5l-94 50c-36 18.667 -63.667 36.667 -83 54
c-14.667 -22 -22 -45.667 -22 -71c0 -23.333 8.16699 -44.166 24.5 -62.499s43.833 -37.833 82.5 -58.5l94 -48c36 -18.667 63.667 -37 83 -55z" />
    <glyph glyph-name="dieresis" unicode="&#xa8;" horiz-adv-x="300" 
d="M20 702h90v-86h-90v86zM193 702h90v-86h-90v86z" />
    <glyph glyph-name="copyright" unicode="&#xa9;" horiz-adv-x="823" 
d="M229 43c-55.333 32 -98.833 75.499 -130.5 130.499s-47.5 116.167 -47.5 183.5s15.833 128.333 47.5 183s75 97.834 130 129.501s116.167 47.5 183.5 47.5s128.5 -15.833 183.5 -47.5s98.333 -75 130 -130s47.5 -115.833 47.5 -182.5
c0 -67.333 -15.833 -128.5 -47.5 -183.5s-75.167 -98.5 -130.5 -130.5s-116.333 -48 -183 -48s-127.667 16 -183 48zM571.5 81.499c47.667 27.667 85.167 65.667 112.5 114s41 102.166 41 161.499c0 58.667 -13.667 112 -41 160s-64.833 85.833 -112.5 113.5
s-100.834 41.5 -159.501 41.5s-112 -13.833 -160 -41.5s-85.667 -65.5 -113 -113.5s-41 -101.333 -41 -160c0 -59.333 13.667 -113.166 41 -161.499s65 -86.333 113 -114s101.333 -41.5 160 -41.5s111.834 13.833 159.501 41.5zM270.5 196.999
c-37 39.333 -55.502 92.667 -55.502 160c0 66 18.5 118.667 55.5 158s86.833 59 149.5 59c28.667 0 56.334 -4.83301 83.001 -14.5s49.334 -23.167 68.001 -40.5l-24 -54c-38.667 31.333 -79 47 -121 47c-42.667 0 -75.5 -13.333 -98.5 -40s-34.5 -65 -34.5 -115
c0 -50.667 11.5 -89.5 34.5 -116.5s55.833 -40.5 98.5 -40.5c42 0 82.333 15.667 121 47l24 -54c-19.333 -17.333 -42.333 -30.833 -69 -40.5s-54 -14.5 -82 -14.5c-62.667 0 -112.5 19.667 -149.5 59z" />
    <glyph glyph-name="ordfeminine" unicode="&#xaa;" horiz-adv-x="333" 
d="M260 687.5c20.667 -19.667 30.9971 -50.835 30.9971 -93.502v-178h-69v47c-8 -16.667 -19.667 -29.5 -35 -38.5s-33 -13.5 -53 -13.5c-30 0 -54.833 8.83301 -74.5 26.5s-29.5 38.834 -29.5 63.501c0 22 5.5 39.167 16.5 51.5s29.167 21.333 54.5 27s60 8.5 104 8.5h16
v17c0 20.667 -4.66699 35.334 -14 44.001s-23.666 13 -42.999 13c-34.667 0 -67.667 -10 -99 -30l-20 52c16.667 10 35.834 18 57.501 24s43.834 9 66.501 9c40 0 70.333 -9.83301 91 -29.5zM200.997 481.999c13.333 13.333 19.999 31 19.999 53v15h-10
c-44.667 0 -74.5 -3.33301 -89.5 -10s-22.5 -18 -22.5 -34c0 -12 4.83301 -22.333 14.5 -31s21.834 -13 36.501 -13c20.667 0 37.667 6.66699 51 20z" />
    <glyph glyph-name="guillemotleft" unicode="&#xab;" horiz-adv-x="445" 
d="M158 88l-132 179l134 181h75l-129 -180l126 -180h-74zM341 88l-132 179l134 181h75l-129 -180l126 -180h-74z" />
    <glyph glyph-name="logicalnot" unicode="&#xac;" 
d="M546 423v-272h-61v210h-431v62h492z" />
    <glyph glyph-name="uni00AD" unicode="&#xad;" horiz-adv-x="429" 
d="M73 235v67h283v-67h-283z" />
    <glyph glyph-name="registered" unicode="&#xae;" horiz-adv-x="823" 
d="M595.5 669.5c55 -31.667 98.333 -75.001 130 -130.001s47.5 -115.833 47.5 -182.5c0 -67.333 -15.833 -128.5 -47.5 -183.5s-75.167 -98.5 -130.5 -130.5s-116.333 -48 -183 -48s-127.667 16 -183 48s-98.833 75.5 -130.5 130.5s-47.5 116.167 -47.5 183.5
s15.833 128.333 47.5 183s75 97.834 130 129.501s116.167 47.5 183.5 47.5s128.5 -15.833 183.5 -47.5zM571.5 81.499c47.667 27.667 85.167 65.667 112.5 114s41 102.166 41 161.499c0 58.667 -13.667 112 -41 160s-64.833 85.833 -112.5 113.5
s-100.834 41.5 -159.501 41.5s-112 -13.833 -160 -41.5s-85.667 -65.5 -113 -113.5s-41 -101.333 -41 -160c0 -59.333 13.667 -113.166 41 -161.499s65 -86.333 113 -114s101.333 -41.5 160 -41.5s111.834 13.833 159.501 41.5zM535 273.999l78 -130.999h-83l-80 137
c-8 12.667 -16.667 21.5 -26 26.5s-21.333 7.5 -36 7.5h-53v-171h-74v427h178c47.333 0 83.833 -11.167 109.5 -33.5s38.5 -53.5 38.5 -93.5c0 -32.667 -9.5 -59.834 -28.5 -81.501s-45.833 -35.167 -80.5 -40.5c22 -6 41 -21.667 57 -47zM493 388.5
c13.333 11 20 28.167 20 51.5c0 24.667 -6.66699 42.5 -20 53.5s-34.333 16.5 -63 16.5h-95v-138h95c28.667 0 49.667 5.5 63 16.5z" />
    <glyph glyph-name="macron" unicode="&#xaf;" horiz-adv-x="300" 
d="M0 628v62h303v-62h-303z" />
    <glyph glyph-name="degree" unicode="&#xb0;" horiz-adv-x="369" 
d="M110 443c-22.667 12.667 -40.5 30.334 -53.5 53.001s-19.5 47.667 -19.5 75s6.5 52.166 19.5 74.499s30.833 39.833 53.5 52.5s47.667 19 75 19c26.667 0 51.167 -6.33301 73.5 -19s40 -30.167 53 -52.5s19.5 -47.166 19.5 -74.499s-6.5 -52.333 -19.5 -75
s-30.667 -40.334 -53 -53.001s-46.833 -19 -73.5 -19c-27.333 0 -52.333 6.33301 -75 19zM249 504c16.667 17.333 25 39.6641 25 66.9971c0 26.667 -8.5 48.834 -25.5 66.501s-38.167 26.5 -63.5 26.5c-26.667 0 -48.334 -8.66699 -65.001 -26s-25 -39.666 -25 -66.999
s8.33301 -49.666 25 -66.999s38.334 -26 65.001 -26c26 0 47.333 8.66699 64 26z" />
    <glyph glyph-name="plusminus" unicode="&#xb1;" 
d="M331 360h215v-62h-215v-174h-62v174h-215v62h215v174h62v-174zM54 0v63h492v-63h-492z" />
    <glyph glyph-name="uni00B2" unicode="&#xb2;" horiz-adv-x="380" 
d="M337 345v-59.999h-285v54l144 159c17.333 18.667 30.333 36 39 52s13 31.667 13 47c0 19.333 -6 34.166 -18 44.499s-28.333 15.5 -49 15.5c-18 0 -37.5 -4 -58.5 -12s-40.833 -19.333 -59.5 -34l-26 54c20 15.333 43.333 27.666 70 36.999s53.667 14 81 14
c41.333 0 74 -10.667 98 -32s36 -49 36 -83c0 -24.667 -5.66699 -48.167 -17 -70.5s-30.333 -47.166 -57 -74.499l-106 -111h195z" />
    <glyph glyph-name="uni00B3" unicode="&#xb3;" horiz-adv-x="380" 
d="M311 468c13.333 -17.333 19.999 -39.332 19.999 -65.999c0 -37.333 -13.167 -66.833 -39.5 -88.5s-62.166 -32.5 -107.499 -32.5c-28 0 -55.5 4.83301 -82.5 14.5s-50.167 22.167 -69.5 37.5l25 53c42.667 -30.667 83.667 -46 123 -46c25.333 0 45.166 5.5 59.499 16.5
s21.5 27.5 21.5 49.5c0 44 -28.333 66 -85 66h-57v58h46c26.667 0 47.334 5.66699 62.001 17s22 28 22 50c0 19.333 -6 34.166 -18 44.499s-28.333 15.5 -49 15.5c-39.333 0 -79 -15.333 -119 -46l-26 54c20 15.333 43.333 27.666 70 36.999s53 14 79 14
c42.667 0 75.834 -10.5 99.501 -31.5s35.5 -48.167 35.5 -81.5c0 -23.333 -6.16699 -43.5 -18.5 -60.5s-28.833 -29.5 -49.5 -37.5c25.333 -7.33301 44.666 -19.666 57.999 -36.999z" />
    <glyph glyph-name="acute" unicode="&#xb4;" horiz-adv-x="300" 
d="M180 557h-57l100 204h94z" />
    <glyph glyph-name="uni00B5" unicode="&#xb5;" horiz-adv-x="577" 
d="M499 503v-503.001h-79v87c-16 -30.667 -38.333 -54 -67 -70s-61 -24 -97 -24c-40.667 0 -74 9 -100 27v-236h-81v719h81v-310c0 -45.333 9.33301 -78.666 28 -99.999s47 -32 85 -32c44.667 0 80.667 14.5 108 43.5s41 67.167 41 114.5v284h81z" />
    <glyph glyph-name="paragraph" unicode="&#xb6;" horiz-adv-x="588" 
d="M500 -182h-68v833h-119v-833h-68v495c-40 0 -75 8.5 -105 25.5s-53.167 40.667 -69.5 71s-24.5 64.833 -24.5 103.5s8.16699 73 24.5 103s39.833 53.5 70.5 70.5s66 25.5 106 25.5h253v-894z" />
    <glyph glyph-name="periodcentered" unicode="&#xb7;" horiz-adv-x="231" 
d="M64 320h103v-103h-103v103z" />
    <glyph glyph-name="cedilla" unicode="&#xb8;" horiz-adv-x="300" 
d="M247.5 -59c15 -12 22.5 -29.333 22.5 -52c0 -24.667 -10.333 -44.834 -31 -60.501s-49.334 -23.5 -86.001 -23.5c-14 0 -29.333 1.66699 -46 5s-31 8 -43 14l13 44c24 -9.33301 49.333 -14 76 -14c18 0 31.833 3 41.5 9s14.5 14.667 14.5 26
c0 8.66699 -3 15.334 -9 20.001s-14.667 7 -26 7c-15.333 0 -30.666 -3 -45.999 -9l-20 16l11 97h57l-7 -63c10.667 1.33301 18.667 2 24 2c21.333 0 39.5 -6 54.5 -18z" />
    <glyph glyph-name="uni00B9" unicode="&#xb9;" horiz-adv-x="380" 
d="M252 345h76v-60h-225v60h77v284l-72 -44v74l89 53h55v-367z" />
    <glyph glyph-name="ordmasculine" unicode="&#xba;" horiz-adv-x="345" 
d="M62 453.5c-26.667 28.333 -40 65.5 -40 111.5c0 45.333 13.333 82 40 110s63.334 42 110.001 42s83.5 -14 110.5 -42s40.5 -64.667 40.5 -110c0 -46 -13.5 -83.167 -40.5 -111.5s-63.833 -42.5 -110.5 -42.5s-83.334 14.167 -110.001 42.5zM231 493.5
c13.333 16.333 20 40.166 20 71.499c0 30 -6.83301 53.333 -20.5 70s-33.167 25 -58.5 25s-44.5 -8.33301 -57.5 -25s-19.5 -40 -19.5 -70c0 -31.333 6.5 -55.166 19.5 -71.499s32.167 -24.5 57.5 -24.5c26 0 45.667 8.16699 59 24.5z" />
    <glyph glyph-name="guillemotright" unicode="&#xbb;" horiz-adv-x="445" 
d="M104 88h-74l127 180l-130 180h76l133 -181zM287 88h-74l127 180l-130 180h76l133 -181z" />
    <glyph glyph-name="onequarter" unicode="&#xbc;" horiz-adv-x="935" 
d="M252 345h76v-60h-225v60h77v284l-72 -44v74l89 53h55v-367zM287 -25l-60 34l422 728l59 -34zM914 141v-57h-63v-84h-70v84h-194v53l204 290h60v-286h63zM656 141h125v179z" />
    <glyph glyph-name="onehalf" unicode="&#xbd;" horiz-adv-x="935" 
d="M252 345h76v-60h-225v60h77v284l-72 -44v74l89 53h55v-367zM287 -25l-60 34l422 728l59 -34zM892 60v-59.999h-285v54l144 159c17.333 18.667 30.333 36 39 52s13 31.667 13 47c0 19.333 -6 34.166 -18 44.499s-28.333 15.5 -49 15.5c-18 0 -37.5 -4 -58.5 -12
s-40.833 -19.333 -59.5 -34l-26 54c20 15.333 43.333 27.666 70 36.999s53.667 14 81 14c41.333 0 74 -10.667 98 -32s36 -49 36 -83c0 -24.667 -5.66699 -48.167 -17 -70.5s-30.333 -47.166 -57 -74.499l-106 -111h195z" />
    <glyph glyph-name="threequarters" unicode="&#xbe;" horiz-adv-x="935" 
d="M311 468c13.333 -17.333 19.999 -39.332 19.999 -65.999c0 -37.333 -13.167 -66.833 -39.5 -88.5s-62.166 -32.5 -107.499 -32.5c-28 0 -55.5 4.83301 -82.5 14.5s-50.167 22.167 -69.5 37.5l25 53c42.667 -30.667 83.667 -46 123 -46c25.333 0 45.166 5.5 59.499 16.5
s21.5 27.5 21.5 49.5c0 44 -28.333 66 -85 66h-57v58h46c26.667 0 47.334 5.66699 62.001 17s22 28 22 50c0 19.333 -6 34.166 -18 44.499s-28.333 15.5 -49 15.5c-39.333 0 -79 -15.333 -119 -46l-26 54c20 15.333 43.333 27.666 70 36.999s53 14 79 14
c42.667 0 75.834 -10.5 99.501 -31.5s35.5 -48.167 35.5 -81.5c0 -23.333 -6.16699 -43.5 -18.5 -60.5s-28.833 -29.5 -49.5 -37.5c25.333 -7.33301 44.666 -19.666 57.999 -36.999zM286.999 -24.999l-60 34l422 728l59 -34zM913.999 141.001v-57h-63v-84h-70v84h-194v53
l204 290h60v-286h63zM655.999 141.001h125v179z" />
    <glyph glyph-name="questiondown" unicode="&#xbf;" horiz-adv-x="447" 
d="M186 388v104h103v-104h-103zM78.5 -146c-36.333 28.667 -54.501 66.333 -54.501 113c0 34 7.66699 62.667 23 86s38 49 68 77c29.333 28 51.833 53.167 67.5 75.5s25.167 49.833 28.5 82.5l3 18h49v-25c0 -28.667 -4.16699 -53.834 -12.5 -75.501
s-18.166 -40.167 -29.499 -55.5s-26.333 -32.666 -45 -51.999c-23.333 -23.333 -40.5 -44 -51.5 -62s-16.5 -39.333 -16.5 -64c0 -27.333 10 -49.333 30 -66s47.333 -25 82 -25c46 0 92.333 13.667 139 41v-74c-42.667 -24.667 -90 -37 -142 -37
c-56 0 -102.167 14.333 -138.5 43z" />
    <glyph glyph-name="Agrave" unicode="&#xc0;" horiz-adv-x="734" 
d="M632 0l-78 183h-372l-79 -183h-85l313 712h72l313 -712h-84zM211 251h314l-157 366zM338 773l-134 153h89l102 -153h-57z" />
    <glyph glyph-name="Aacute" unicode="&#xc1;" horiz-adv-x="734" 
d="M632 0l-78 183h-372l-79 -183h-85l313 712h72l313 -712h-84zM211 251h314l-157 366zM395 773h-57l102 153h89z" />
    <glyph glyph-name="Acircumflex" unicode="&#xc2;" horiz-adv-x="734" 
d="M632 0l-78 183h-372l-79 -183h-85l313 712h72l313 -712h-84zM211 251h314l-157 366zM293 773h-74l120 153h55l120 -153h-74l-73 104z" />
    <glyph glyph-name="Atilde" unicode="&#xc3;" horiz-adv-x="734" 
d="M632 0l-78 183h-372l-79 -183h-85l313 712h72l313 -712h-84zM211 251h314l-157 366zM228.5 879.5c16.333 20.333 38.166 30.5 65.499 30.5c14 0 27.333 -2.83301 40 -8.5s27.667 -13.834 45 -24.501c14 -8.66699 25.167 -15 33.5 -19s16.5 -6 24.5 -6
c14.667 0 26.167 5.33301 34.5 16s12.5 23.667 12.5 39h45c0 -36.667 -8.16699 -65.167 -24.5 -85.5s-38.166 -30.5 -65.499 -30.5c-14 0 -27.333 2.83301 -40 8.5s-27.667 13.834 -45 24.501c-14 8.66699 -25.167 15 -33.5 19s-16.5 6 -24.5 6
c-14.667 0 -26.167 -5.33301 -34.5 -16s-12.5 -23.667 -12.5 -39h-45c0 36.667 8.16699 65.167 24.5 85.5z" />
    <glyph glyph-name="Adieresis" unicode="&#xc4;" horiz-adv-x="734" 
d="M632 0l-78 183h-372l-79 -183h-85l313 712h72l313 -712h-84zM211 251h314l-157 366zM235 893h90v-86h-90v86zM408 893h90v-86h-90v86z" />
    <glyph glyph-name="Aring" unicode="&#xc5;" horiz-adv-x="734" 
d="M554 183h-372.001l-79 -183h-85l304 691c-16.667 8 -30.167 20.167 -40.5 36.5s-15.5 34.166 -15.5 53.499c0 28 9.83301 51.667 29.5 71s43.834 29 72.501 29c28 0 52 -9.66699 72 -29s30 -43 30 -71c0 -20 -5.33301 -38.167 -16 -54.5s-24.667 -28.166 -42 -35.499
l304 -691h-84zM332.999 816.5c-9.33301 -9.66699 -14 -21.5 -14 -35.5c0 -14.667 4.5 -26.834 13.5 -36.501s20.833 -14.5 35.5 -14.5c14 0 25.5 4.83301 34.5 14.5s13.5 21.834 13.5 36.501c0 14 -4.5 25.833 -13.5 35.5s-20.5 14.5 -34.5 14.5s-25.667 -4.83301 -35 -14.5
zM210.999 251h314l-157 366z" />
    <glyph glyph-name="AE" unicode="&#xc6;" horiz-adv-x="1001" 
d="M951 643h-374l22 -247h332v-69h-326l23 -258h323v-69h-392l-16 183h-347l-108 -183h-90l433 712h520v-69zM537 251l-34 392h-34l-232 -392h300z" />
    <glyph glyph-name="Ccedilla" unicode="&#xc7;" horiz-adv-x="684" 
d="M534 17c-38.667 -15.333 -81.0029 -23.665 -127.003 -24.998l-4 -35c10.667 1.33301 18.667 2 24 2c21.333 0 39.5 -6 54.5 -18s22.5 -29.333 22.5 -52c0 -24.667 -10.333 -44.834 -31 -60.501s-49.334 -23.5 -86.001 -23.5c-14 0 -29.333 1.66699 -46 5s-31 8 -43 14
l13 44c24 -9.33301 49.333 -14 76 -14c18 0 31.833 3 41.5 9s14.5 14.667 14.5 26c0 8.66699 -3 15.334 -9 20.001s-14.667 7 -26 7c-15.333 0 -30.666 -3 -45.999 -9l-20 16l8 71c-59.333 6 -110.666 24.5 -153.999 55.5s-76.5 72.667 -99.5 125
s-34.5 113.166 -34.5 182.499c0 74.667 13.333 139.167 40 193.5s64.834 96.166 114.501 125.499s108.167 44 175.5 44c49.333 0 94.5 -7.5 135.5 -22.5s76.5 -37.5 106.5 -67.5l-31 -63c-34 29.333 -67.5 50.333 -100.5 63s-69.5 19 -109.5 19
c-78 0 -138.5 -25.333 -181.5 -76s-64.5 -122.667 -64.5 -216c0 -94 21.333 -166.5 64 -217.5s103.334 -76.5 182.001 -76.5c40 0 76.5 6.33301 109.5 19s66.5 33.667 100.5 63l31 -63c-28 -28 -61.333 -49.667 -100 -65z" />
    <glyph glyph-name="Egrave" unicode="&#xc8;" horiz-adv-x="588" 
d="M88 0v712h450v-68h-369v-248h349v-69h-349v-259h369v-68h-450zM298 773l-134 153h89l102 -153h-57z" />
    <glyph glyph-name="Eacute" unicode="&#xc9;" horiz-adv-x="588" 
d="M88 0v712h450v-68h-369v-248h349v-69h-349v-259h369v-68h-450zM355 773h-57l102 153h89z" />
    <glyph glyph-name="Ecircumflex" unicode="&#xca;" horiz-adv-x="588" 
d="M88 0v712h450v-68h-369v-248h349v-69h-349v-259h369v-68h-450zM253 773h-74l120 153h55l120 -153h-74l-73 104z" />
    <glyph glyph-name="Edieresis" unicode="&#xcb;" horiz-adv-x="588" 
d="M88 0v712h450v-68h-369v-248h349v-69h-349v-259h369v-68h-450zM195 893h90v-86h-90v86zM368 893h90v-86h-90v86z" />
    <glyph glyph-name="Igrave" unicode="&#xcc;" horiz-adv-x="258" 
d="M88 0v712h82v-712h-82zM100 773l-134 153h89l102 -153h-57z" />
    <glyph glyph-name="Iacute" unicode="&#xcd;" horiz-adv-x="258" 
d="M88 0v712h82v-712h-82zM157 773h-57l102 153h89z" />
    <glyph glyph-name="Icircumflex" unicode="&#xce;" horiz-adv-x="258" 
d="M88 0v712h82v-712h-82zM55 773h-74l120 153h55l120 -153h-74l-73 104z" />
    <glyph glyph-name="Idieresis" unicode="&#xcf;" horiz-adv-x="258" 
d="M88 0v712h82v-712h-82zM-3 893h90v-86h-90v86zM170 893h90v-86h-90v86z" />
    <glyph glyph-name="Eth" unicode="&#xd0;" horiz-adv-x="760" 
d="M604.5 619.5c62.333 -61.667 93.5 -149.167 93.5 -262.5c0 -114 -31.167 -202 -93.5 -264s-150.5 -93 -264.5 -93h-239v328h-93v66h93v318h239c114 0 202.167 -30.833 264.5 -92.5zM543 142.5c46.667 48.333 70 119.833 70 214.5c0 190 -92.333 285 -277 285h-152v-248
h194v-66h-194v-258h152c91.333 0 160.333 24.167 207 72.5z" />
    <glyph glyph-name="Ntilde" unicode="&#xd1;" horiz-adv-x="746" 
d="M581 712h78v-712h-64l-430 573v-573h-77v712h63l430 -573v573zM234.5 879.5c16.333 20.333 38.166 30.5 65.499 30.5c14 0 27.333 -2.83301 40 -8.5s27.667 -13.834 45 -24.501c14 -8.66699 25.167 -15 33.5 -19s16.5 -6 24.5 -6c14.667 0 26.167 5.33301 34.5 16
s12.5 23.667 12.5 39h45c0 -36.667 -8.16699 -65.167 -24.5 -85.5s-38.166 -30.5 -65.499 -30.5c-14 0 -27.333 2.83301 -40 8.5s-27.667 13.834 -45 24.501c-14 8.66699 -25.167 15 -33.5 19s-16.5 6 -24.5 6c-14.667 0 -26.167 -5.33301 -34.5 -16
s-12.5 -23.667 -12.5 -39h-45c0 36.667 8.16699 65.167 24.5 85.5z" />
    <glyph glyph-name="Ograve" unicode="&#xd2;" horiz-adv-x="772" 
d="M214 36c-48.667 29.333 -86.1689 71.501 -112.502 126.501s-39.5 119.5 -39.5 193.5c0 74.667 13 139.334 39 194.001s63.333 96.667 112 126s106.334 44 173.001 44s124.334 -14.667 173.001 -44s86 -71.333 112 -126s39 -119 39 -193
c0 -74.667 -13.167 -139.334 -39.5 -194.001s-63.833 -96.834 -112.5 -126.501s-106 -44.5 -172 -44.5s-123.333 14.667 -172 44zM561.998 139.001c42 51.333 63 124 63 218s-20.833 166.333 -62.5 217s-100.5 76 -176.5 76s-135 -25.5 -177 -76.5s-63 -123.167 -63 -216.5
c0 -94 21 -166.667 63 -218s101 -77 177 -77c75.333 0 134 25.667 176 77zM355.998 773.001l-134 153h89l102 -153h-57z" />
    <glyph glyph-name="Oacute" unicode="&#xd3;" horiz-adv-x="772" 
d="M214 36c-48.667 29.333 -86.1689 71.501 -112.502 126.501s-39.5 119.5 -39.5 193.5c0 74.667 13 139.334 39 194.001s63.333 96.667 112 126s106.334 44 173.001 44s124.334 -14.667 173.001 -44s86 -71.333 112 -126s39 -119 39 -193
c0 -74.667 -13.167 -139.334 -39.5 -194.001s-63.833 -96.834 -112.5 -126.501s-106 -44.5 -172 -44.5s-123.333 14.667 -172 44zM561.998 139.001c42 51.333 63 124 63 218s-20.833 166.333 -62.5 217s-100.5 76 -176.5 76s-135 -25.5 -177 -76.5s-63 -123.167 -63 -216.5
c0 -94 21 -166.667 63 -218s101 -77 177 -77c75.333 0 134 25.667 176 77zM412.998 773.001h-57l102 153h89z" />
    <glyph glyph-name="Ocircumflex" unicode="&#xd4;" horiz-adv-x="772" 
d="M214 36c-48.667 29.333 -86.1689 71.501 -112.502 126.501s-39.5 119.5 -39.5 193.5c0 74.667 13 139.334 39 194.001s63.333 96.667 112 126s106.334 44 173.001 44s124.334 -14.667 173.001 -44s86 -71.333 112 -126s39 -119 39 -193
c0 -74.667 -13.167 -139.334 -39.5 -194.001s-63.833 -96.834 -112.5 -126.501s-106 -44.5 -172 -44.5s-123.333 14.667 -172 44zM561.998 139.001c42 51.333 63 124 63 218s-20.833 166.333 -62.5 217s-100.5 76 -176.5 76s-135 -25.5 -177 -76.5s-63 -123.167 -63 -216.5
c0 -94 21 -166.667 63 -218s101 -77 177 -77c75.333 0 134 25.667 176 77zM310.998 773.001h-74l120 153h55l120 -153h-74l-73 104z" />
    <glyph glyph-name="Otilde" unicode="&#xd5;" horiz-adv-x="772" 
d="M214 36c-48.667 29.333 -86.1689 71.501 -112.502 126.501s-39.5 119.5 -39.5 193.5c0 74.667 13 139.334 39 194.001s63.333 96.667 112 126s106.334 44 173.001 44s124.334 -14.667 173.001 -44s86 -71.333 112 -126s39 -119 39 -193
c0 -74.667 -13.167 -139.334 -39.5 -194.001s-63.833 -96.834 -112.5 -126.501s-106 -44.5 -172 -44.5s-123.333 14.667 -172 44zM561.998 139.001c42 51.333 63 124 63 218s-20.833 166.333 -62.5 217s-100.5 76 -176.5 76s-135 -25.5 -177 -76.5s-63 -123.167 -63 -216.5
c0 -94 21 -166.667 63 -218s101 -77 177 -77c75.333 0 134 25.667 176 77zM246.498 879.501c16.333 20.333 38.166 30.5 65.499 30.5c14 0 27.333 -2.83301 40 -8.5s27.667 -13.834 45 -24.501c14 -8.66699 25.167 -15 33.5 -19s16.5 -6 24.5 -6
c14.667 0 26.167 5.33301 34.5 16s12.5 23.667 12.5 39h45c0 -36.667 -8.16699 -65.167 -24.5 -85.5s-38.166 -30.5 -65.499 -30.5c-14 0 -27.333 2.83301 -40 8.5s-27.667 13.834 -45 24.501c-14 8.66699 -25.167 15 -33.5 19s-16.5 6 -24.5 6
c-14.667 0 -26.167 -5.33301 -34.5 -16s-12.5 -23.667 -12.5 -39h-45c0 36.667 8.16699 65.167 24.5 85.5z" />
    <glyph glyph-name="Odieresis" unicode="&#xd6;" horiz-adv-x="772" 
d="M214 36c-48.667 29.333 -86.1689 71.501 -112.502 126.501s-39.5 119.5 -39.5 193.5c0 74.667 13 139.334 39 194.001s63.333 96.667 112 126s106.334 44 173.001 44s124.334 -14.667 173.001 -44s86 -71.333 112 -126s39 -119 39 -193
c0 -74.667 -13.167 -139.334 -39.5 -194.001s-63.833 -96.834 -112.5 -126.501s-106 -44.5 -172 -44.5s-123.333 14.667 -172 44zM561.998 139.001c42 51.333 63 124 63 218s-20.833 166.333 -62.5 217s-100.5 76 -176.5 76s-135 -25.5 -177 -76.5s-63 -123.167 -63 -216.5
c0 -94 21 -166.667 63 -218s101 -77 177 -77c75.333 0 134 25.667 176 77zM252.998 893.001h90v-86h-90v86zM425.998 893.001h90v-86h-90v86z" />
    <glyph glyph-name="multiply" unicode="&#xd7;" 
d="M536 480l-192 -192l192 -193l-44 -43l-192 192l-192 -192l-44 43l192 193l-192 192l44 44l192 -192l192 192z" />
    <glyph glyph-name="Oslash" unicode="&#xd8;" horiz-adv-x="772" 
d="M680.5 528.5c19.667 -49.667 29.499 -106.832 29.499 -171.499c0 -74.667 -13.167 -139.334 -39.5 -194.001s-63.833 -96.834 -112.5 -126.501s-106 -44.5 -172 -44.5c-57.333 0 -108.666 11.333 -153.999 34l-43 -73l-57 33l45 77c-37.333 31.333 -65.833 72 -85.5 122
s-29.5 107 -29.5 171c0 74.667 13 139.334 39 194.001s63.333 96.667 112 126s106.334 44 173.001 44c57.333 0 108.666 -11.333 153.999 -34l43 73l56 -33l-44 -76c37.333 -31.333 65.833 -71.833 85.5 -121.5zM215.999 131.002l288 492c-34 18 -73.333 27 -118 27
c-76 0 -135 -25.5 -177 -76.5s-63 -123.167 -63 -216.5c0 -98.667 23.333 -174 70 -226zM561.999 139.002c42 51.333 63.001 124 63.001 218c0 100 -23.333 175 -70 225l-287 -492c33.333 -18.667 72.666 -28 117.999 -28c75.333 0 134 25.667 176 77z" />
    <glyph glyph-name="Ugrave" unicode="&#xd9;" horiz-adv-x="731" 
d="M154.5 64.5c-47.667 48.333 -71.5 119.833 -71.5 214.5v433h81v-440c0 -69.333 17 -121.666 51 -156.999s84.333 -53 151 -53c66 0 115.833 17.667 149.5 53s50.5 87.666 50.5 156.999v440h82v-433c0 -94 -24 -165.333 -72 -214s-118 -73 -210 -73
c-93.333 0 -163.833 24.167 -211.5 72.5zM337 773l-134 153h89l102 -153h-57z" />
    <glyph glyph-name="Uacute" unicode="&#xda;" horiz-adv-x="731" 
d="M154.5 64.5c-47.667 48.333 -71.5 119.833 -71.5 214.5v433h81v-440c0 -69.333 17 -121.666 51 -156.999s84.333 -53 151 -53c66 0 115.833 17.667 149.5 53s50.5 87.666 50.5 156.999v440h82v-433c0 -94 -24 -165.333 -72 -214s-118 -73 -210 -73
c-93.333 0 -163.833 24.167 -211.5 72.5zM394 773h-57l102 153h89z" />
    <glyph glyph-name="Ucircumflex" unicode="&#xdb;" horiz-adv-x="731" 
d="M154.5 64.5c-47.667 48.333 -71.5 119.833 -71.5 214.5v433h81v-440c0 -69.333 17 -121.666 51 -156.999s84.333 -53 151 -53c66 0 115.833 17.667 149.5 53s50.5 87.666 50.5 156.999v440h82v-433c0 -94 -24 -165.333 -72 -214s-118 -73 -210 -73
c-93.333 0 -163.833 24.167 -211.5 72.5zM292 773h-74l120 153h55l120 -153h-74l-73 104z" />
    <glyph glyph-name="Udieresis" unicode="&#xdc;" horiz-adv-x="731" 
d="M154.5 64.5c-47.667 48.333 -71.5 119.833 -71.5 214.5v433h81v-440c0 -69.333 17 -121.666 51 -156.999s84.333 -53 151 -53c66 0 115.833 17.667 149.5 53s50.5 87.666 50.5 156.999v440h82v-433c0 -94 -24 -165.333 -72 -214s-118 -73 -210 -73
c-93.333 0 -163.833 24.167 -211.5 72.5zM234 893h90v-86h-90v86zM407 893h90v-86h-90v86z" />
    <glyph glyph-name="Yacute" unicode="&#xdd;" horiz-adv-x="607" 
d="M624 712l-280 -424v-288h-82v289l-280 423h96l226 -350l226 350h94zM331 773h-57l102 153h89z" />
    <glyph glyph-name="Thorn" unicode="&#xde;" horiz-adv-x="651" 
d="M545.5 505c39.667 -33.333 59.499 -80.667 59.499 -142s-20 -109 -60 -143s-96 -51 -168 -51h-208v-169h-81v712h81v-157h208c72.667 0 128.834 -16.667 168.501 -50zM485.499 267.999c25.667 20.667 38.498 52.333 38.498 95s-12.667 74 -38 94s-64.666 30 -117.999 30
h-199v-250h199c52.667 0 91.834 10.333 117.501 31z" />
    <glyph glyph-name="germandbls" unicode="&#xdf;" horiz-adv-x="634" 
d="M543.5 287.5c39 -36.333 58.501 -80.166 58.501 -131.499c0 -50 -17 -89.667 -51 -119s-80 -44 -138 -44c-36.667 0 -71.334 5.66699 -104.001 17s-60.334 27.333 -83.001 48l28 62c27.333 -21.333 54 -36.833 80 -46.5s53 -14.5 81 -14.5c36 0 63.167 8.5 81.5 25.5
s27.5 41.5 27.5 73.5c0 37.333 -18.833 69.833 -56.5 97.5s-102.5 53.834 -194.5 78.501v62c60.667 23.333 103.167 49.166 127.5 77.499s36.5 62.166 36.5 101.499c0 32.667 -10 57.667 -30 75s-49.333 26 -88 26c-52 0 -91.667 -14.5 -119 -43.5s-41 -72.167 -41 -129.5
v-503h-81v494c0 80 20.833 141.167 62.5 183.5s101.167 63.5 178.5 63.5c60.667 0 108.334 -14.5 143.001 -43.5s52 -69.5 52 -121.5c0 -44.667 -11.833 -83.5 -35.5 -116.5s-63.5 -61.833 -119.5 -86.5c84 -20.667 145.5 -49.167 184.5 -85.5z" />
    <glyph glyph-name="agrave" unicode="&#xe0;" 
d="M521 503l0.00292969 -503.001h-80v91c-14.667 -31.333 -36.834 -55.5 -66.501 -72.5s-64.167 -25.5 -103.5 -25.5c-44.667 0 -83.834 10.667 -117.501 32s-59.667 51.5 -78 90.5s-27.5 84.5 -27.5 136.5s9.33301 97.833 28 137.5s44.834 70.5 78.501 92.5
s72.5 33 116.5 33c39.333 0 73.666 -8.66699 102.999 -26s51.666 -41.666 66.999 -72.999v87h80zM401.003 110.499c26.667 33.667 40 81.498 40 143.498s-13.333 109.667 -40 143s-64.667 50 -114 50s-87.833 -17.167 -115.5 -51.5s-41.5 -82.166 -41.5 -143.499
s13.667 -108.666 41 -141.999s66 -50 116 -50c49.333 0 87.333 16.833 114 50.5zM272.003 567.997l-137 204h94l100 -204h-57z" />
    <glyph glyph-name="aacute" unicode="&#xe1;" 
d="M521 503l0.00292969 -503.001h-80v91c-14.667 -31.333 -36.834 -55.5 -66.501 -72.5s-64.167 -25.5 -103.5 -25.5c-44.667 0 -83.834 10.667 -117.501 32s-59.667 51.5 -78 90.5s-27.5 84.5 -27.5 136.5s9.33301 97.833 28 137.5s44.834 70.5 78.501 92.5
s72.5 33 116.5 33c39.333 0 73.666 -8.66699 102.999 -26s51.666 -41.666 66.999 -72.999v87h80zM401.003 110.499c26.667 33.667 40 81.498 40 143.498s-13.333 109.667 -40 143s-64.667 50 -114 50s-87.833 -17.167 -115.5 -51.5s-41.5 -82.166 -41.5 -143.499
s13.667 -108.666 41 -141.999s66 -50 116 -50c49.333 0 87.333 16.833 114 50.5zM329.003 567.997h-57l100 204h94z" />
    <glyph glyph-name="acircumflex" unicode="&#xe2;" 
d="M521 503l0.00292969 -503.001h-80v91c-14.667 -31.333 -36.834 -55.5 -66.501 -72.5s-64.167 -25.5 -103.5 -25.5c-44.667 0 -83.834 10.667 -117.501 32s-59.667 51.5 -78 90.5s-27.5 84.5 -27.5 136.5s9.33301 97.833 28 137.5s44.834 70.5 78.501 92.5
s72.5 33 116.5 33c39.333 0 73.666 -8.66699 102.999 -26s51.666 -41.666 66.999 -72.999v87h80zM401.003 110.499c26.667 33.667 40 81.498 40 143.498s-13.333 109.667 -40 143s-64.667 50 -114 50s-87.833 -17.167 -115.5 -51.5s-41.5 -82.166 -41.5 -143.499
s13.667 -108.666 41 -141.999s66 -50 116 -50c49.333 0 87.333 16.833 114 50.5zM228.003 567.997h-75l119 204h57l119 -204h-75l-72 144z" />
    <glyph glyph-name="atilde" unicode="&#xe3;" 
d="M521 503l0.00292969 -503.001h-80v91c-14.667 -31.333 -36.834 -55.5 -66.501 -72.5s-64.167 -25.5 -103.5 -25.5c-44.667 0 -83.834 10.667 -117.501 32s-59.667 51.5 -78 90.5s-27.5 84.5 -27.5 136.5s9.33301 97.833 28 137.5s44.834 70.5 78.501 92.5
s72.5 33 116.5 33c39.333 0 73.666 -8.66699 102.999 -26s51.666 -41.666 66.999 -72.999v87h80zM401.003 110.499c26.667 33.667 40 81.498 40 143.498s-13.333 109.667 -40 143s-64.667 50 -114 50s-87.833 -17.167 -115.5 -51.5s-41.5 -82.166 -41.5 -143.499
s13.667 -108.666 41 -141.999s66 -50 116 -50c49.333 0 87.333 16.833 114 50.5zM162.503 699.997c16.333 20 38.166 30 65.499 30c14 0 27.333 -2.83301 40 -8.5s27.667 -13.834 45 -24.501c14 -8.66699 25.167 -15 33.5 -19s16.5 -6 24.5 -6
c14.667 0 26.167 5.33301 34.5 16s12.5 23.667 12.5 39h45c0 -36.667 -8.16699 -65 -24.5 -85s-38.166 -30 -65.499 -30c-14 0 -27.333 2.83301 -40 8.5s-27.667 13.834 -45 24.501c-14 8.66699 -25.167 15 -33.5 19s-16.5 6 -24.5 6c-14.667 0 -26.167 -5.33301 -34.5 -16
s-12.5 -23.667 -12.5 -39h-45c0 36.667 8.16699 65 24.5 85z" />
    <glyph glyph-name="adieresis" unicode="&#xe4;" 
d="M521 503l0.00292969 -503.001h-80v91c-14.667 -31.333 -36.834 -55.5 -66.501 -72.5s-64.167 -25.5 -103.5 -25.5c-44.667 0 -83.834 10.667 -117.501 32s-59.667 51.5 -78 90.5s-27.5 84.5 -27.5 136.5s9.33301 97.833 28 137.5s44.834 70.5 78.501 92.5
s72.5 33 116.5 33c39.333 0 73.666 -8.66699 102.999 -26s51.666 -41.666 66.999 -72.999v87h80zM401.003 110.499c26.667 33.667 40 81.498 40 143.498s-13.333 109.667 -40 143s-64.667 50 -114 50s-87.833 -17.167 -115.5 -51.5s-41.5 -82.166 -41.5 -143.499
s13.667 -108.666 41 -141.999s66 -50 116 -50c49.333 0 87.333 16.833 114 50.5zM169.003 712.997h90v-86h-90v86zM342.003 712.997h90v-86h-90v86z" />
    <glyph glyph-name="aring" unicode="&#xe5;" 
d="M521 503l0.00292969 -503.001h-80v91c-14.667 -31.333 -36.834 -55.5 -66.501 -72.5s-64.167 -25.5 -103.5 -25.5c-44.667 0 -83.834 10.667 -117.501 32s-59.667 51.5 -78 90.5s-27.5 84.5 -27.5 136.5s9.33301 97.833 28 137.5s44.834 70.5 78.501 92.5
s72.5 33 116.5 33c39.333 0 73.666 -8.66699 102.999 -26s51.666 -41.666 66.999 -72.999v87h80zM401.003 110.499c26.667 33.667 40 81.498 40 143.498s-13.333 109.667 -40 143s-64.667 50 -114 50s-87.833 -17.167 -115.5 -51.5s-41.5 -82.166 -41.5 -143.499
s13.667 -108.666 41 -141.999s66 -50 116 -50c49.333 0 87.333 16.833 114 50.5zM228.503 598.497c-19.667 19 -29.5 42.833 -29.5 71.5c0 28 9.83301 51.667 29.5 71s43.834 29 72.501 29c28 0 51.833 -9.66699 71.5 -29s29.5 -43 29.5 -71s-9.83301 -51.667 -29.5 -71
s-43.5 -29 -71.5 -29c-28.667 0 -52.834 9.5 -72.501 28.5zM335.503 633.497c9 9.66699 13.5 21.834 13.5 36.501c0 14 -4.5 25.833 -13.5 35.5s-20.5 14.5 -34.5 14.5s-25.667 -4.83301 -35 -14.5s-14 -21.5 -14 -35.5c0 -14.667 4.5 -26.834 13.5 -36.501
s20.833 -14.5 35.5 -14.5c14 0 25.5 4.83301 34.5 14.5z" />
    <glyph glyph-name="ae" unicode="&#xe6;" horiz-adv-x="881" 
d="M474 254v-0.999023c0 -62 14.333 -109.667 43 -143s70.667 -50 126 -50c54 0 106.667 19.667 158 59l26 -59c-21.333 -20.667 -49 -37 -83 -49s-68.333 -18 -103 -18c-50.667 0 -94 11.167 -130 33.5s-63 54.5 -81 96.5c-13.333 -41.333 -36 -73.333 -68 -96
s-70.667 -34 -116 -34c-35.333 0 -67 6.66699 -95 20s-50 32.166 -66 56.499s-24 51.833 -24 82.5c0 37.333 9.5 67.166 28.5 89.499s49.833 38.833 92.5 49.5s100 16 172 16h40v16c0 44 -8.5 75.833 -25.5 95.5s-45.167 29.5 -84.5 29.5
c-57.333 0 -115.666 -18 -174.999 -54l-27 59c25.333 18.667 56.5 33.667 93.5 45s72.833 17 107.5 17c84.667 0 140.667 -30 168 -90c20 28.667 45.167 50.834 75.5 66.501s64.166 23.5 101.499 23.5c64.667 0 115.5 -22.167 152.5 -66.5s55.5 -104.5 55.5 -180.5v-14h-362
zM527 414.501c-26 -25 -42.333 -60.833 -49 -107.5h285c-3.33301 46.667 -16.833 82.5 -40.5 107.5s-55.5 37.5 -95.5 37.5c-40.667 0 -74 -12.5 -100 -37.5zM355.5 100.501c25.667 29 38.5 66.5 38.5 112.5v42h-36c-54 0 -96.5 -3.5 -127.5 -10.5
s-53.167 -17.667 -66.5 -32s-20 -33.5 -20 -57.5c0 -29.333 10.167 -53 30.5 -71s46.833 -27 79.5 -27c42 0 75.833 14.5 101.5 43.5z" />
    <glyph glyph-name="ccedilla" unicode="&#xe7;" horiz-adv-x="495" 
d="M395.5 12.5c-29.667 -11.667 -60.5029 -18.167 -92.5029 -19.5l-4 -36c10.667 1.33301 18.667 2 24 2c21.333 0 39.5 -6 54.5 -18s22.5 -29.333 22.5 -52c0 -24.667 -10.333 -44.834 -31 -60.501s-49.334 -23.5 -86.001 -23.5c-14 0 -29.333 1.66699 -46 5s-31 8 -43 14
l13 44c24 -9.33301 49.333 -14 76 -14c18 0 31.833 3 41.5 9s14.5 14.667 14.5 26c0 8.66699 -3 15.334 -9 20.001s-14.667 7 -26 7c-15.333 0 -30.666 -3 -45.999 -9l-20 16l8 73c-61.333 8.66699 -109.666 35.834 -144.999 81.501s-53 103.834 -53 174.501
c0 52 10 97.833 30 137.5s48.5 70.5 85.5 92.5s80.167 33 129.5 33c34 0 66.833 -5.83301 98.5 -17.5s57.834 -27.834 78.501 -48.501l-27 -60c-25.333 20 -49.833 34.667 -73.5 44s-47.834 14 -72.501 14c-51.333 0 -91.666 -17.167 -120.999 -51.5
s-44 -82.166 -44 -143.499c0 -60.667 14.5 -107.834 43.5 -141.501s69.5 -50.5 121.5 -50.5c24.667 0 48.834 4.66699 72.501 14s48.167 24 73.5 44l27 -60c-20 -18.667 -44.833 -33.834 -74.5 -45.501z" />
    <glyph glyph-name="egrave" unicode="&#xe8;" horiz-adv-x="544" 
d="M499 254l-368.999 0.000976562c0.666992 -64 15.5 -112.333 44.5 -145s71.167 -49 126.5 -49c58.667 0 112.667 19.667 162 59l27 -59c-22 -20.667 -50.167 -37 -84.5 -49s-69.5 -18 -105.5 -18c-78.667 0 -140.334 23.167 -185.001 69.5s-67 109.833 -67 190.5
c0 51.333 10 96.833 30 136.5s48 70.5 84 92.5s77 33 123 33c66.667 0 119 -21.833 157 -65.5s57 -103.834 57 -180.501v-15zM183.501 414.001c-26.333 -25.333 -43.167 -61 -50.5 -107h293c-4 47.333 -17.833 83.333 -41.5 108s-56.5 37 -98.5 37
s-76.167 -12.667 -102.5 -38zM256 568.001l-137 204h94l100 -204h-57z" />
    <glyph glyph-name="eacute" unicode="&#xe9;" horiz-adv-x="544" 
d="M499 254l-368.999 0.000976562c0.666992 -64 15.5 -112.333 44.5 -145s71.167 -49 126.5 -49c58.667 0 112.667 19.667 162 59l27 -59c-22 -20.667 -50.167 -37 -84.5 -49s-69.5 -18 -105.5 -18c-78.667 0 -140.334 23.167 -185.001 69.5s-67 109.833 -67 190.5
c0 51.333 10 96.833 30 136.5s48 70.5 84 92.5s77 33 123 33c66.667 0 119 -21.833 157 -65.5s57 -103.834 57 -180.501v-15zM183.501 414.001c-26.333 -25.333 -43.167 -61 -50.5 -107h293c-4 47.333 -17.833 83.333 -41.5 108s-56.5 37 -98.5 37
s-76.167 -12.667 -102.5 -38zM313 568.001h-57l100 204h94z" />
    <glyph glyph-name="ecircumflex" unicode="&#xea;" horiz-adv-x="544" 
d="M499 254l-368.999 0.000976562c0.666992 -64 15.5 -112.333 44.5 -145s71.167 -49 126.5 -49c58.667 0 112.667 19.667 162 59l27 -59c-22 -20.667 -50.167 -37 -84.5 -49s-69.5 -18 -105.5 -18c-78.667 0 -140.334 23.167 -185.001 69.5s-67 109.833 -67 190.5
c0 51.333 10 96.833 30 136.5s48 70.5 84 92.5s77 33 123 33c66.667 0 119 -21.833 157 -65.5s57 -103.834 57 -180.501v-15zM183.501 414.001c-26.333 -25.333 -43.167 -61 -50.5 -107h293c-4 47.333 -17.833 83.333 -41.5 108s-56.5 37 -98.5 37
s-76.167 -12.667 -102.5 -38zM212 568.001h-75l119 204h57l119 -204h-75l-72 144z" />
    <glyph glyph-name="edieresis" unicode="&#xeb;" horiz-adv-x="544" 
d="M499 254l-368.999 0.000976562c0.666992 -64 15.5 -112.333 44.5 -145s71.167 -49 126.5 -49c58.667 0 112.667 19.667 162 59l27 -59c-22 -20.667 -50.167 -37 -84.5 -49s-69.5 -18 -105.5 -18c-78.667 0 -140.334 23.167 -185.001 69.5s-67 109.833 -67 190.5
c0 51.333 10 96.833 30 136.5s48 70.5 84 92.5s77 33 123 33c66.667 0 119 -21.833 157 -65.5s57 -103.834 57 -180.501v-15zM183.501 414.001c-26.333 -25.333 -43.167 -61 -50.5 -107h293c-4 47.333 -17.833 83.333 -41.5 108s-56.5 37 -98.5 37
s-76.167 -12.667 -102.5 -38zM153 713.001h90v-86h-90v86zM326 713.001h90v-86h-90v86z" />
    <glyph glyph-name="igrave" unicode="&#xec;" horiz-adv-x="238" 
d="M78 0v503h81v-503h-81zM91 568l-137 204h94l100 -204h-57z" />
    <glyph glyph-name="iacute" unicode="&#xed;" horiz-adv-x="238" 
d="M78 0v503h81v-503h-81zM148 568h-57l100 204h94z" />
    <glyph glyph-name="icircumflex" unicode="&#xee;" horiz-adv-x="238" 
d="M78 0v503h81v-503h-81zM47 568h-75l119 204h57l119 -204h-75l-72 144z" />
    <glyph glyph-name="idieresis" unicode="&#xef;" horiz-adv-x="238" 
d="M78 0v503h81v-503h-81zM-12 713h90v-86h-90v86zM161 713h90v-86h-90v86z" />
    <glyph glyph-name="eth" unicode="&#xf0;" horiz-adv-x="576" 
d="M500.5 469.5c18.333 -52.333 27.5059 -109.833 27.5059 -172.5c0 -99.333 -20.833 -174.833 -62.5 -226.5s-102.167 -77.5 -181.5 -77.5c-46.667 0 -87.834 9.83301 -123.501 29.5s-63.334 47.5 -83.001 83.5s-29.5 77.667 -29.5 125s9.66699 89.166 29 125.499
s46.666 64.333 81.999 84s76 29.5 122 29.5c73.333 0 127.666 -25 162.999 -75c-12.667 74.667 -44.334 136.667 -95.001 186l-165 -59l-17 51l134 48c-38.667 28 -85 49 -139 63l21 60c75.333 -19.333 140 -51 194 -95l132 47l16 -51l-105 -38
c35.333 -39.333 62.166 -85.166 80.499 -137.499zM400.006 105.5c27.333 30.333 40.999 72.168 40.999 125.501c0 54.667 -13.5 97 -40.5 127s-65.167 45 -114.5 45s-87.666 -15 -114.999 -45s-41 -72.333 -41 -127s13.5 -96.834 40.5 -126.501s65.5 -44.5 115.5 -44.5
c48.667 0 86.667 15.167 114 45.5z" />
    <glyph glyph-name="ntilde" unicode="&#xf1;" horiz-adv-x="585" 
d="M510 316v-316.001h-81v312c0 46.667 -9.33301 80.834 -28 102.501s-48 32.5 -88 32.5c-46.667 0 -84 -14.333 -112 -43s-42 -67.334 -42 -116.001v-288h-81v362c0 52 -2.66699 99 -8 141h77l8 -90c15.333 32.667 38.333 57.834 69 75.501s65.667 26.5 105 26.5
c120.667 0 181 -66.333 181 -199zM155.5 699.999c16.333 20 38.166 30 65.499 30c14 0 27.333 -2.83301 40 -8.5s27.667 -13.834 45 -24.501c14 -8.66699 25.167 -15 33.5 -19s16.5 -6 24.5 -6c14.667 0 26.167 5.33301 34.5 16s12.5 23.667 12.5 39h45
c0 -36.667 -8.16699 -65 -24.5 -85s-38.166 -30 -65.499 -30c-14 0 -27.333 2.83301 -40 8.5s-27.667 13.834 -45 24.501c-14 8.66699 -25.167 15 -33.5 19s-16.5 6 -24.5 6c-14.667 0 -26.167 -5.33301 -34.5 -16s-12.5 -23.667 -12.5 -39h-45c0 36.667 8.16699 65 24.5 85
z" />
    <glyph glyph-name="ograve" unicode="&#xf2;" horiz-adv-x="572" 
d="M161 25c-36 21.333 -63.833 51.666 -83.5 90.999s-29.5 85.333 -29.5 138s9.83301 98.667 29.5 138s47.5 69.666 83.5 90.999s77.667 32 125 32s89 -10.667 125 -32s63.833 -51.666 83.5 -90.999s29.5 -85.333 29.5 -138s-9.83301 -98.667 -29.5 -138
s-47.5 -69.666 -83.5 -90.999s-77.667 -32 -125 -32s-89 10.667 -125 32zM401 109.5c26.667 33 39.999 81.167 39.999 144.5c0 61.333 -13.667 108.833 -41 142.5s-65.333 50.5 -114 50.5c-49.333 0 -87.666 -16.833 -114.999 -50.5s-41 -81.167 -41 -142.5
c0 -63.333 13.5 -111.5 40.5 -144.5s65.5 -49.5 115.5 -49.5s88.333 16.5 115 49.5zM256.999 568l-137 204h94l100 -204h-57z" />
    <glyph glyph-name="oacute" unicode="&#xf3;" horiz-adv-x="572" 
d="M161 25c-36 21.333 -63.833 51.666 -83.5 90.999s-29.5 85.333 -29.5 138s9.83301 98.667 29.5 138s47.5 69.666 83.5 90.999s77.667 32 125 32s89 -10.667 125 -32s63.833 -51.666 83.5 -90.999s29.5 -85.333 29.5 -138s-9.83301 -98.667 -29.5 -138
s-47.5 -69.666 -83.5 -90.999s-77.667 -32 -125 -32s-89 10.667 -125 32zM401 109.5c26.667 33 39.999 81.167 39.999 144.5c0 61.333 -13.667 108.833 -41 142.5s-65.333 50.5 -114 50.5c-49.333 0 -87.666 -16.833 -114.999 -50.5s-41 -81.167 -41 -142.5
c0 -63.333 13.5 -111.5 40.5 -144.5s65.5 -49.5 115.5 -49.5s88.333 16.5 115 49.5zM313.999 568h-57l100 204h94z" />
    <glyph glyph-name="ocircumflex" unicode="&#xf4;" horiz-adv-x="572" 
d="M161 25c-36 21.333 -63.833 51.666 -83.5 90.999s-29.5 85.333 -29.5 138s9.83301 98.667 29.5 138s47.5 69.666 83.5 90.999s77.667 32 125 32s89 -10.667 125 -32s63.833 -51.666 83.5 -90.999s29.5 -85.333 29.5 -138s-9.83301 -98.667 -29.5 -138
s-47.5 -69.666 -83.5 -90.999s-77.667 -32 -125 -32s-89 10.667 -125 32zM401 109.5c26.667 33 39.999 81.167 39.999 144.5c0 61.333 -13.667 108.833 -41 142.5s-65.333 50.5 -114 50.5c-49.333 0 -87.666 -16.833 -114.999 -50.5s-41 -81.167 -41 -142.5
c0 -63.333 13.5 -111.5 40.5 -144.5s65.5 -49.5 115.5 -49.5s88.333 16.5 115 49.5zM212.999 568h-75l119 204h57l119 -204h-75l-72 144z" />
    <glyph glyph-name="otilde" unicode="&#xf5;" horiz-adv-x="572" 
d="M161 25c-36 21.333 -63.833 51.666 -83.5 90.999s-29.5 85.333 -29.5 138s9.83301 98.667 29.5 138s47.5 69.666 83.5 90.999s77.667 32 125 32s89 -10.667 125 -32s63.833 -51.666 83.5 -90.999s29.5 -85.333 29.5 -138s-9.83301 -98.667 -29.5 -138
s-47.5 -69.666 -83.5 -90.999s-77.667 -32 -125 -32s-89 10.667 -125 32zM401 109.5c26.667 33 39.999 81.167 39.999 144.5c0 61.333 -13.667 108.833 -41 142.5s-65.333 50.5 -114 50.5c-49.333 0 -87.666 -16.833 -114.999 -50.5s-41 -81.167 -41 -142.5
c0 -63.333 13.5 -111.5 40.5 -144.5s65.5 -49.5 115.5 -49.5s88.333 16.5 115 49.5zM147.499 700c16.333 20 38.166 30 65.499 30c14 0 27.333 -2.83301 40 -8.5s27.667 -13.834 45 -24.501c14 -8.66699 25.167 -15 33.5 -19s16.5 -6 24.5 -6
c14.667 0 26.167 5.33301 34.5 16s12.5 23.667 12.5 39h45c0 -36.667 -8.16699 -65 -24.5 -85s-38.166 -30 -65.499 -30c-14 0 -27.333 2.83301 -40 8.5s-27.667 13.834 -45 24.501c-14 8.66699 -25.167 15 -33.5 19s-16.5 6 -24.5 6c-14.667 0 -26.167 -5.33301 -34.5 -16
s-12.5 -23.667 -12.5 -39h-45c0 36.667 8.16699 65 24.5 85z" />
    <glyph glyph-name="odieresis" unicode="&#xf6;" horiz-adv-x="572" 
d="M161 25c-36 21.333 -63.833 51.666 -83.5 90.999s-29.5 85.333 -29.5 138s9.83301 98.667 29.5 138s47.5 69.666 83.5 90.999s77.667 32 125 32s89 -10.667 125 -32s63.833 -51.666 83.5 -90.999s29.5 -85.333 29.5 -138s-9.83301 -98.667 -29.5 -138
s-47.5 -69.666 -83.5 -90.999s-77.667 -32 -125 -32s-89 10.667 -125 32zM401 109.5c26.667 33 39.999 81.167 39.999 144.5c0 61.333 -13.667 108.833 -41 142.5s-65.333 50.5 -114 50.5c-49.333 0 -87.666 -16.833 -114.999 -50.5s-41 -81.167 -41 -142.5
c0 -63.333 13.5 -111.5 40.5 -144.5s65.5 -49.5 115.5 -49.5s88.333 16.5 115 49.5zM153.999 713h90v-86h-90v86zM326.999 713h90v-86h-90v86z" />
    <glyph glyph-name="divide" unicode="&#xf7;" 
d="M247 439v96h94v-96h-94zM546 319v-63h-492v63h492zM247 38v96h94v-96h-94z" />
    <glyph glyph-name="oslash" unicode="&#xf8;" horiz-adv-x="572" 
d="M502 374.5c14.667 -35.667 22 -75.834 22 -120.501c0 -52.667 -9.83301 -98.667 -29.5 -138s-47.5 -69.666 -83.5 -90.999s-77.667 -32 -125 -32c-38 0 -73.333 7.33301 -106 22l-36 -62l-49 29l37 64c-26.667 22.667 -47.334 51.834 -62.001 87.501
s-22 75.834 -22 120.501c0 52.667 9.83301 98.667 29.5 138s47.5 69.666 83.5 90.999s77.667 32 125 32c38 0 73.333 -7.33301 106 -22l35 60l50 -27l-37 -64c26.667 -22.667 47.334 -51.834 62.001 -87.501zM170 110l186.999 323c-20 10 -43.667 15 -71 15
c-49.333 0 -87.666 -16.833 -114.999 -50.5s-41 -81.5 -41 -143.5s13.333 -110 40 -144zM401.499 109.5c27 33 40.499 81.167 40.499 144.5c0 60.667 -13.333 108 -40 142l-187 -322c20.667 -9.33301 44.334 -14 71.001 -14c50 0 88.5 16.5 115.5 49.5z" />
    <glyph glyph-name="ugrave" unicode="&#xf9;" horiz-adv-x="577" 
d="M499 503v-503h-79v87c-16 -30.667 -38.333 -54 -67 -70s-61 -24 -97 -24c-59.333 0 -104.333 16.667 -135 50s-46 82.666 -46 147.999v312h81v-310c0 -45.333 9.33301 -78.666 28 -99.999s47 -32 85 -32c44.667 0 80.667 14.5 108 43.5s41 67.167 41 114.5v284h81z
M260 568l-137 204h94l100 -204h-57z" />
    <glyph glyph-name="uacute" unicode="&#xfa;" horiz-adv-x="577" 
d="M499 503v-503h-79v87c-16 -30.667 -38.333 -54 -67 -70s-61 -24 -97 -24c-59.333 0 -104.333 16.667 -135 50s-46 82.666 -46 147.999v312h81v-310c0 -45.333 9.33301 -78.666 28 -99.999s47 -32 85 -32c44.667 0 80.667 14.5 108 43.5s41 67.167 41 114.5v284h81z
M317 568h-57l100 204h94z" />
    <glyph glyph-name="ucircumflex" unicode="&#xfb;" horiz-adv-x="577" 
d="M499 503v-503h-79v87c-16 -30.667 -38.333 -54 -67 -70s-61 -24 -97 -24c-59.333 0 -104.333 16.667 -135 50s-46 82.666 -46 147.999v312h81v-310c0 -45.333 9.33301 -78.666 28 -99.999s47 -32 85 -32c44.667 0 80.667 14.5 108 43.5s41 67.167 41 114.5v284h81z
M216 568h-75l119 204h57l119 -204h-75l-72 144z" />
    <glyph glyph-name="udieresis" unicode="&#xfc;" horiz-adv-x="577" 
d="M499 503v-503h-79v87c-16 -30.667 -38.333 -54 -67 -70s-61 -24 -97 -24c-59.333 0 -104.333 16.667 -135 50s-46 82.666 -46 147.999v312h81v-310c0 -45.333 9.33301 -78.666 28 -99.999s47 -32 85 -32c44.667 0 80.667 14.5 108 43.5s41 67.167 41 114.5v284h81z
M157 713h90v-86h-90v86zM330 713h90v-86h-90v86z" />
    <glyph glyph-name="yacute" unicode="&#xfd;" horiz-adv-x="531" 
d="M520 503l-234.999 -549.002c-24.667 -57.333 -55.667 -99.333 -93 -126s-83.333 -45 -138 -55l-17 63c47.333 10.667 83.166 24.834 107.499 42.501s44.5 44.834 60.5 81.501l20 45l-213 498h85l170 -415l172 415h81zM294.001 567.998h-57l100 204h94z" />
    <glyph glyph-name="thorn" unicode="&#xfe;" 
d="M444 483c34 -21.333 60.6641 -52 79.9971 -92s29 -86.333 29 -139c0 -53.333 -9.66699 -99.5 -29 -138.5s-45.833 -68.833 -79.5 -89.5s-72.167 -31 -115.5 -31c-39.333 0 -73.666 8.66699 -102.999 26s-51.666 42 -66.999 74v-309h-81v952h81v-322
c14.667 32.667 36.834 57.667 66.501 75s64.167 26 103.5 26c42.667 0 81 -10.667 115 -32zM428.997 110.5c26.667 33.667 40 80.832 40 141.499s-13.5 108.334 -40.5 143.001s-65.167 52 -114.5 52c-50 0 -88.333 -16.667 -115 -50s-40 -81 -40 -143
s13.333 -109.833 40 -143.5s65 -50.5 115 -50.5s88.333 16.833 115 50.5z" />
    <glyph glyph-name="ydieresis" unicode="&#xff;" horiz-adv-x="531" 
d="M520 503l-234.999 -549.002c-24.667 -57.333 -55.667 -99.333 -93 -126s-83.333 -45 -138 -55l-17 63c47.333 10.667 83.166 24.834 107.499 42.501s44.5 44.834 60.5 81.501l20 45l-213 498h85l170 -415l172 415h81zM134.001 712.998h90v-86h-90v86zM307.001 712.998h90
v-86h-90v86z" />
    <glyph glyph-name="Amacron" unicode="&#x100;" horiz-adv-x="734" 
d="M632 0l-78 183h-372l-79 -183h-85l313 712h72l313 -712h-84zM211 251h314l-157 366zM215 819v62h303v-62h-303z" />
    <glyph glyph-name="amacron" unicode="&#x101;" 
d="M521 503l0.00292969 -503.001h-80v91c-14.667 -31.333 -36.834 -55.5 -66.501 -72.5s-64.167 -25.5 -103.5 -25.5c-44.667 0 -83.834 10.667 -117.501 32s-59.667 51.5 -78 90.5s-27.5 84.5 -27.5 136.5s9.33301 97.833 28 137.5s44.834 70.5 78.501 92.5
s72.5 33 116.5 33c39.333 0 73.666 -8.66699 102.999 -26s51.666 -41.666 66.999 -72.999v87h80zM401.003 110.499c26.667 33.667 40 81.498 40 143.498s-13.333 109.667 -40 143s-64.667 50 -114 50s-87.833 -17.167 -115.5 -51.5s-41.5 -82.166 -41.5 -143.499
s13.667 -108.666 41 -141.999s66 -50 116 -50c49.333 0 87.333 16.833 114 50.5zM149.003 638.997v62h303v-62h-303z" />
    <glyph glyph-name="Abreve" unicode="&#x102;" horiz-adv-x="734" 
d="M632 0l-78 183h-372l-79 -183h-85l313 712h72l313 -712h-84zM211 251h314l-157 366zM267 810.5c-28.667 17 -50.333 44.167 -65 81.5l51 22c15.333 -26.667 32 -45.167 50 -55.5s39.333 -15.5 64 -15.5s45.834 5.16699 63.501 15.5s34.167 28.833 49.5 55.5l51 -22
c-14.667 -37.333 -36.334 -64.5 -65.001 -81.5s-61.667 -25.5 -99 -25.5c-38 0 -71.333 8.5 -100 25.5z" />
    <glyph glyph-name="abreve" unicode="&#x103;" 
d="M521 503l0.00292969 -503.001h-80v91c-14.667 -31.333 -36.834 -55.5 -66.501 -72.5s-64.167 -25.5 -103.5 -25.5c-44.667 0 -83.834 10.667 -117.501 32s-59.667 51.5 -78 90.5s-27.5 84.5 -27.5 136.5s9.33301 97.833 28 137.5s44.834 70.5 78.501 92.5
s72.5 33 116.5 33c39.333 0 73.666 -8.66699 102.999 -26s51.666 -41.666 66.999 -72.999v87h80zM401.003 110.499c26.667 33.667 40 81.498 40 143.498s-13.333 109.667 -40 143s-64.667 50 -114 50s-87.833 -17.167 -115.5 -51.5s-41.5 -82.166 -41.5 -143.499
s13.667 -108.666 41 -141.999s66 -50 116 -50c49.333 0 87.333 16.833 114 50.5zM200.003 629.497c-30 21 -52 53.167 -66 96.5l51 22c14.667 -32 31.667 -55 51 -69s41 -21 65 -21c48.667 0 87 30 115 90l51 -22c-14 -43.333 -35.833 -75.5 -65.5 -96.5
s-63.167 -31.5 -100.5 -31.5s-71 10.5 -101 31.5z" />
    <glyph glyph-name="Aogonek" unicode="&#x104;" horiz-adv-x="734" 
d="M750 -172c-26 -15.333 -54.668 -23 -86.001 -23c-34.667 0 -63.167 9.83301 -85.5 29.5s-33.5 45.167 -33.5 76.5c0 24.667 6.5 46.834 19.5 66.501s31.833 35.5 56.5 47.5l-67 158h-372l-79 -183h-85l313 712h72l313 -712h-19c-28.667 0 -50.5 -7.33301 -65.5 -22
s-22.5 -33.334 -22.5 -56.001c0 -20 5.83301 -35.5 17.5 -46.5s27.834 -16.5 48.501 -16.5c18 0 37.333 5.66699 58 17zM210.999 251h314l-157 366z" />
    <glyph glyph-name="aogonek" unicode="&#x105;" 
d="M568 -176c-24.667 -15.333 -54.332 -22.998 -88.999 -22.998c-35.333 0 -64.166 10 -86.499 30s-33.5 46.333 -33.5 79c0 25.333 7.16699 48.166 21.5 68.499s34.5 36.166 60.5 47.499v65c-14.667 -31.333 -36.834 -55.5 -66.501 -72.5s-64.167 -25.5 -103.5 -25.5
c-44.667 0 -83.834 10.667 -117.501 32s-59.667 51.5 -78 90.5s-27.5 84.5 -27.5 136.5s9.33301 97.833 28 137.5s44.834 70.5 78.501 92.5s72.5 33 116.5 33c39.333 0 73.666 -8.66699 102.999 -26s51.666 -41.666 66.999 -72.999v87h80v-503h-5
c-27.333 0 -49.666 -7.5 -66.999 -22.5s-26 -34.167 -26 -57.5c0 -20.667 6 -36.834 18 -48.501s28.667 -17.5 50 -17.5c16.667 0 36.667 6.33301 60 19zM401.002 110.502c26.667 33.667 40 81.498 40 143.498s-13.333 109.667 -40 143s-64.667 50 -114 50
s-87.833 -17.167 -115.5 -51.5s-41.5 -82.166 -41.5 -143.499s13.667 -108.666 41 -141.999s66 -50 116 -50c49.333 0 87.333 16.833 114 50.5z" />
    <glyph glyph-name="Cacute" unicode="&#x106;" horiz-adv-x="684" 
d="M216.5 36c-49.667 29.333 -87.835 71.501 -114.502 126.501s-40 119.833 -40 194.5s13.333 139.167 40 193.5s64.834 96.166 114.501 125.499s108.167 44 175.5 44c49.333 0 94.5 -7.5 135.5 -22.5s76.5 -37.5 106.5 -67.5l-31 -63c-34 29.333 -67.5 50.333 -100.5 63
s-69.5 19 -109.5 19c-78 0 -138.5 -25.333 -181.5 -76s-64.5 -122.667 -64.5 -216c0 -94 21.333 -166.5 64 -217.5s103.334 -76.5 182.001 -76.5c40 0 76.5 6.33301 109.5 19s66.5 33.667 100.5 63l31 -63c-30 -30 -65.5 -52.5 -106.5 -67.5s-86.167 -22.5 -135.5 -22.5
c-67.333 0 -125.833 14.667 -175.5 44zM417.999 773.001h-57l102 153h89z" />
    <glyph glyph-name="cacute" unicode="&#x107;" horiz-adv-x="495" 
d="M161.5 25c-36.333 21.333 -64.3359 51.501 -84.0029 90.501s-29.5 84.5 -29.5 136.5s10 97.833 30 137.5s48.5 70.5 85.5 92.5s80.167 33 129.5 33c34 0 66.833 -5.83301 98.5 -17.5s57.834 -27.834 78.501 -48.501l-27 -60c-25.333 20 -49.833 34.667 -73.5 44
s-47.834 14 -72.501 14c-51.333 0 -91.666 -17.167 -120.999 -51.5s-44 -82.166 -44 -143.499c0 -60.667 14.5 -107.834 43.5 -141.501s69.5 -50.5 121.5 -50.5c24.667 0 48.834 4.66699 72.501 14s48.167 24 73.5 44l27 -60c-21.333 -20 -48.166 -35.833 -80.499 -47.5
s-65.833 -17.5 -100.5 -17.5c-48.667 0 -91.167 10.667 -127.5 32zM316.997 568.001h-57l100 204h94z" />
    <glyph glyph-name="Ccircumflex" unicode="&#x108;" horiz-adv-x="684" 
d="M216.5 36c-49.667 29.333 -87.835 71.501 -114.502 126.501s-40 119.833 -40 194.5s13.333 139.167 40 193.5s64.834 96.166 114.501 125.499s108.167 44 175.5 44c49.333 0 94.5 -7.5 135.5 -22.5s76.5 -37.5 106.5 -67.5l-31 -63c-34 29.333 -67.5 50.333 -100.5 63
s-69.5 19 -109.5 19c-78 0 -138.5 -25.333 -181.5 -76s-64.5 -122.667 -64.5 -216c0 -94 21.333 -166.5 64 -217.5s103.334 -76.5 182.001 -76.5c40 0 76.5 6.33301 109.5 19s66.5 33.667 100.5 63l31 -63c-30 -30 -65.5 -52.5 -106.5 -67.5s-86.167 -22.5 -135.5 -22.5
c-67.333 0 -125.833 14.667 -175.5 44zM315.999 773.001h-74l120 153h55l120 -153h-74l-73 104z" />
    <glyph glyph-name="ccircumflex" unicode="&#x109;" horiz-adv-x="495" 
d="M161.5 25c-36.333 21.333 -64.3359 51.501 -84.0029 90.501s-29.5 84.5 -29.5 136.5s10 97.833 30 137.5s48.5 70.5 85.5 92.5s80.167 33 129.5 33c34 0 66.833 -5.83301 98.5 -17.5s57.834 -27.834 78.501 -48.501l-27 -60c-25.333 20 -49.833 34.667 -73.5 44
s-47.834 14 -72.501 14c-51.333 0 -91.666 -17.167 -120.999 -51.5s-44 -82.166 -44 -143.499c0 -60.667 14.5 -107.834 43.5 -141.501s69.5 -50.5 121.5 -50.5c24.667 0 48.834 4.66699 72.501 14s48.167 24 73.5 44l27 -60c-21.333 -20 -48.166 -35.833 -80.499 -47.5
s-65.833 -17.5 -100.5 -17.5c-48.667 0 -91.167 10.667 -127.5 32zM215.997 568.001h-75l119 204h57l119 -204h-75l-72 144z" />
    <glyph glyph-name="Cdotaccent" unicode="&#x10a;" horiz-adv-x="684" 
d="M216.5 36c-49.667 29.333 -87.835 71.501 -114.502 126.501s-40 119.833 -40 194.5s13.333 139.167 40 193.5s64.834 96.166 114.501 125.499s108.167 44 175.5 44c49.333 0 94.5 -7.5 135.5 -22.5s76.5 -37.5 106.5 -67.5l-31 -63c-34 29.333 -67.5 50.333 -100.5 63
s-69.5 19 -109.5 19c-78 0 -138.5 -25.333 -181.5 -76s-64.5 -122.667 -64.5 -216c0 -94 21.333 -166.5 64 -217.5s103.334 -76.5 182.001 -76.5c40 0 76.5 6.33301 109.5 19s66.5 33.667 100.5 63l31 -63c-30 -30 -65.5 -52.5 -106.5 -67.5s-86.167 -22.5 -135.5 -22.5
c-67.333 0 -125.833 14.667 -175.5 44zM339.999 896.001h99v-92h-99v92z" />
    <glyph glyph-name="cdotaccent" unicode="&#x10b;" horiz-adv-x="495" 
d="M161.5 25c-36.333 21.333 -64.3359 51.501 -84.0029 90.501s-29.5 84.5 -29.5 136.5s10 97.833 30 137.5s48.5 70.5 85.5 92.5s80.167 33 129.5 33c34 0 66.833 -5.83301 98.5 -17.5s57.834 -27.834 78.501 -48.501l-27 -60c-25.333 20 -49.833 34.667 -73.5 44
s-47.834 14 -72.501 14c-51.333 0 -91.666 -17.167 -120.999 -51.5s-44 -82.166 -44 -143.499c0 -60.667 14.5 -107.834 43.5 -141.501s69.5 -50.5 121.5 -50.5c24.667 0 48.834 4.66699 72.501 14s48.167 24 73.5 44l27 -60c-21.333 -20 -48.166 -35.833 -80.499 -47.5
s-65.833 -17.5 -100.5 -17.5c-48.667 0 -91.167 10.667 -127.5 32zM238.997 716.001h99v-92h-99v92z" />
    <glyph glyph-name="Ccaron" unicode="&#x10c;" horiz-adv-x="684" 
d="M216.5 36c-49.667 29.333 -87.835 71.501 -114.502 126.501s-40 119.833 -40 194.5s13.333 139.167 40 193.5s64.834 96.166 114.501 125.499s108.167 44 175.5 44c49.333 0 94.5 -7.5 135.5 -22.5s76.5 -37.5 106.5 -67.5l-31 -63c-34 29.333 -67.5 50.333 -100.5 63
s-69.5 19 -109.5 19c-78 0 -138.5 -25.333 -181.5 -76s-64.5 -122.667 -64.5 -216c0 -94 21.333 -166.5 64 -217.5s103.334 -76.5 182.001 -76.5c40 0 76.5 6.33301 109.5 19s66.5 33.667 100.5 63l31 -63c-30 -30 -65.5 -52.5 -106.5 -67.5s-86.167 -22.5 -135.5 -22.5
c-67.333 0 -125.833 14.667 -175.5 44zM462.999 926.001h74l-120 -153h-55l-120 153h74l74 -105z" />
    <glyph glyph-name="ccaron" unicode="&#x10d;" horiz-adv-x="495" 
d="M161.5 25c-36.333 21.333 -64.3359 51.501 -84.0029 90.501s-29.5 84.5 -29.5 136.5s10 97.833 30 137.5s48.5 70.5 85.5 92.5s80.167 33 129.5 33c34 0 66.833 -5.83301 98.5 -17.5s57.834 -27.834 78.501 -48.501l-27 -60c-25.333 20 -49.833 34.667 -73.5 44
s-47.834 14 -72.501 14c-51.333 0 -91.666 -17.167 -120.999 -51.5s-44 -82.166 -44 -143.499c0 -60.667 14.5 -107.834 43.5 -141.501s69.5 -50.5 121.5 -50.5c24.667 0 48.834 4.66699 72.501 14s48.167 24 73.5 44l27 -60c-21.333 -20 -48.166 -35.833 -80.499 -47.5
s-65.833 -17.5 -100.5 -17.5c-48.667 0 -91.167 10.667 -127.5 32zM360.997 772.001h75l-119 -204h-57l-119 204h75l73 -145z" />
    <glyph glyph-name="Dcaron" unicode="&#x10e;" horiz-adv-x="746" 
d="M88 712h239c114 0 202.167 -30.833 264.5 -92.5s93.5 -149.167 93.5 -262.5c0 -114 -31.167 -202 -93.5 -264s-150.5 -93 -264.5 -93h-239v712zM322 70c92 0 161.167 24 207.5 72s69.5 119.667 69.5 215c0 190 -92.333 285 -277 285h-152v-572h152zM446 926h74l-120 -153
h-55l-120 153h74l74 -105z" />
    <glyph glyph-name="dcaron" unicode="&#x10f;" 
d="M440 736h81.0029v-736h-80v91c-14.667 -31.333 -36.834 -55.5 -66.501 -72.5s-64.167 -25.5 -103.5 -25.5c-44 0 -82.833 11 -116.5 33s-59.834 52.833 -78.501 92.5s-28 85.5 -28 137.5s9.16699 97.5 27.5 136.5s44.5 69.167 78.5 90.5s73 32 117 32
c39.333 0 73.666 -8.5 102.999 -25.5s51.333 -40.833 66 -71.5v318zM556.003 736h65l-27 -196h-38v196zM401.003 110.5c26.667 33.667 40 81.5 40 143.5c0 61.333 -13.333 108.833 -40 142.5s-64.667 50.5 -114 50.5s-87.833 -16.667 -115.5 -50s-41.5 -80.333 -41.5 -141
c0 -62 13.833 -110.167 41.5 -144.5s66.167 -51.5 115.5 -51.5s87.333 16.833 114 50.5z" />
    <glyph glyph-name="Dcroat" unicode="&#x110;" horiz-adv-x="760" 
d="M604.5 619.5c62.333 -61.667 93.5 -149.167 93.5 -262.5c0 -114 -31.167 -202 -93.5 -264s-150.5 -93 -264.5 -93h-239v328h-93v66h93v318h239c114 0 202.167 -30.833 264.5 -92.5zM543 142.5c46.667 48.333 70 119.833 70 214.5c0 190 -92.333 285 -277 285h-152v-248
h194v-66h-194v-258h152c91.333 0 160.333 24.167 207 72.5z" />
    <glyph glyph-name="dcroat" unicode="&#x111;" 
d="M617 582h-95.9971v-582h-80v91c-14.667 -31.333 -36.834 -55.5 -66.501 -72.5s-64.167 -25.5 -103.5 -25.5c-44 0 -82.833 11 -116.5 33s-59.834 52.833 -78.501 92.5s-28 85.5 -28 137.5s9.16699 97.5 27.5 136.5s44.5 69.167 78.5 90.5s73 32 117 32
c39.333 0 73.666 -8.5 102.999 -25.5s51.333 -40.833 66 -71.5v164h-199v61h199v93h81v-93h96v-61zM401.003 110.5c26.667 33.667 40 81.5 40 143.5c0 61.333 -13.333 108.833 -40 142.5s-64.667 50.5 -114 50.5s-87.833 -16.667 -115.5 -50s-41.5 -80.333 -41.5 -141
c0 -62 13.833 -110.167 41.5 -144.5s66.167 -51.5 115.5 -51.5s87.333 16.833 114 50.5z" />
    <glyph glyph-name="Emacron" unicode="&#x112;" horiz-adv-x="588" 
d="M88 0v712h450v-68h-369v-248h349v-69h-349v-259h369v-68h-450zM175 819v62h303v-62h-303z" />
    <glyph glyph-name="emacron" unicode="&#x113;" horiz-adv-x="544" 
d="M499 254l-368.999 0.000976562c0.666992 -64 15.5 -112.333 44.5 -145s71.167 -49 126.5 -49c58.667 0 112.667 19.667 162 59l27 -59c-22 -20.667 -50.167 -37 -84.5 -49s-69.5 -18 -105.5 -18c-78.667 0 -140.334 23.167 -185.001 69.5s-67 109.833 -67 190.5
c0 51.333 10 96.833 30 136.5s48 70.5 84 92.5s77 33 123 33c66.667 0 119 -21.833 157 -65.5s57 -103.834 57 -180.501v-15zM183.501 414.001c-26.333 -25.333 -43.167 -61 -50.5 -107h293c-4 47.333 -17.833 83.333 -41.5 108s-56.5 37 -98.5 37
s-76.167 -12.667 -102.5 -38zM133 639.001v62h303v-62h-303z" />
    <glyph glyph-name="Ebreve" unicode="&#x114;" horiz-adv-x="588" 
d="M88 0v712h450v-68h-369v-248h349v-69h-349v-259h369v-68h-450zM227 810.5c-28.667 17 -50.333 44.167 -65 81.5l51 22c15.333 -26.667 32 -45.167 50 -55.5s39.333 -15.5 64 -15.5s45.834 5.16699 63.501 15.5s34.167 28.833 49.5 55.5l51 -22
c-14.667 -37.333 -36.334 -64.5 -65.001 -81.5s-61.667 -25.5 -99 -25.5c-38 0 -71.333 8.5 -100 25.5z" />
    <glyph glyph-name="ebreve" unicode="&#x115;" horiz-adv-x="544" 
d="M499 254l-368.999 0.000976562c0.666992 -64 15.5 -112.333 44.5 -145s71.167 -49 126.5 -49c58.667 0 112.667 19.667 162 59l27 -59c-22 -20.667 -50.167 -37 -84.5 -49s-69.5 -18 -105.5 -18c-78.667 0 -140.334 23.167 -185.001 69.5s-67 109.833 -67 190.5
c0 51.333 10 96.833 30 136.5s48 70.5 84 92.5s77 33 123 33c66.667 0 119 -21.833 157 -65.5s57 -103.834 57 -180.501v-15zM183.501 414.001c-26.333 -25.333 -43.167 -61 -50.5 -107h293c-4 47.333 -17.833 83.333 -41.5 108s-56.5 37 -98.5 37
s-76.167 -12.667 -102.5 -38zM184 629.501c-30 21 -52 53.167 -66 96.5l51 22c14.667 -32 31.667 -55 51 -69s41 -21 65 -21c48.667 0 87 30 115 90l51 -22c-14 -43.333 -35.833 -75.5 -65.5 -96.5s-63.167 -31.5 -100.5 -31.5s-71 10.5 -101 31.5z" />
    <glyph glyph-name="Edotaccent" unicode="&#x116;" horiz-adv-x="588" 
d="M88 0v712h450v-68h-369v-248h349v-69h-349v-259h369v-68h-450zM277 896h99v-92h-99v92z" />
    <glyph glyph-name="edotaccent" unicode="&#x117;" horiz-adv-x="544" 
d="M499 254l-368.999 0.000976562c0.666992 -64 15.5 -112.333 44.5 -145s71.167 -49 126.5 -49c58.667 0 112.667 19.667 162 59l27 -59c-22 -20.667 -50.167 -37 -84.5 -49s-69.5 -18 -105.5 -18c-78.667 0 -140.334 23.167 -185.001 69.5s-67 109.833 -67 190.5
c0 51.333 10 96.833 30 136.5s48 70.5 84 92.5s77 33 123 33c66.667 0 119 -21.833 157 -65.5s57 -103.834 57 -180.501v-15zM183.501 414.001c-26.333 -25.333 -43.167 -61 -50.5 -107h293c-4 47.333 -17.833 83.333 -41.5 108s-56.5 37 -98.5 37
s-76.167 -12.667 -102.5 -38zM235 716.001h99v-92h-99v92z" />
    <glyph glyph-name="Eogonek" unicode="&#x118;" horiz-adv-x="588" 
d="M573 -172c-27.333 -15.333 -56.332 -23.001 -86.999 -23.001c-35.333 0 -63.833 10 -85.5 30s-32.5 45.333 -32.5 76c0 36 13.667 65.667 41 89h-321v712h450v-68h-369v-248h349v-69h-349v-259h369v-68h-15c-29.333 0 -52 -7.16699 -68 -21.5s-24 -33.166 -24 -56.499
c0 -20 6 -35.5 18 -46.5s28.333 -16.5 49 -16.5c17.333 0 36.666 5.66699 57.999 17z" />
    <glyph glyph-name="eogonek" unicode="&#x119;" horiz-adv-x="544" 
d="M499 254l-368.998 0.00390625c0.666992 -64 15.5 -112.333 44.5 -145s71.167 -49 126.5 -49c58.667 0 112.667 19.667 162 59l27 -58c-4.66699 -5.33301 -10.5 -10.333 -17.5 -15s-18.5 -11.334 -34.5 -20.001c-34 -18.667 -57.833 -36 -71.5 -52s-20.5 -34 -20.5 -54
c0 -20.667 6 -36.834 18 -48.501s28.333 -17.5 49 -17.5c17.333 0 37.666 6.33301 60.999 19l16 -49c-24.667 -15.333 -53.667 -23 -87 -23c-36 0 -65.167 10 -87.5 30s-33.5 46 -33.5 78c0 33.333 12.333 61.666 37 84.999c-4 -0.666992 -10.333 -1 -19 -1
c-78.667 0 -140.334 23.167 -185.001 69.5s-67 109.833 -67 190.5c0 51.333 10 96.833 30 136.5s48 70.5 84 92.5s77 33 123 33c66.667 0 119 -21.833 157 -65.5s57 -103.834 57 -180.501v-15zM183.502 414.004c-26.333 -25.333 -42.833 -61 -49.5 -107h292
c-4 47.333 -17.833 83.333 -41.5 108s-56.5 37 -98.5 37s-76.167 -12.667 -102.5 -38z" />
    <glyph glyph-name="Ecaron" unicode="&#x11a;" horiz-adv-x="588" 
d="M88 0v712h450v-68h-369v-248h349v-69h-349v-259h369v-68h-450zM400 926h74l-120 -153h-55l-120 153h74l74 -105z" />
    <glyph glyph-name="ecaron" unicode="&#x11b;" horiz-adv-x="544" 
d="M499 254l-368.999 0.000976562c0.666992 -64 15.5 -112.333 44.5 -145s71.167 -49 126.5 -49c58.667 0 112.667 19.667 162 59l27 -59c-22 -20.667 -50.167 -37 -84.5 -49s-69.5 -18 -105.5 -18c-78.667 0 -140.334 23.167 -185.001 69.5s-67 109.833 -67 190.5
c0 51.333 10 96.833 30 136.5s48 70.5 84 92.5s77 33 123 33c66.667 0 119 -21.833 157 -65.5s57 -103.834 57 -180.501v-15zM183.501 414.001c-26.333 -25.333 -43.167 -61 -50.5 -107h293c-4 47.333 -17.833 83.333 -41.5 108s-56.5 37 -98.5 37
s-76.167 -12.667 -102.5 -38zM357 772.001h75l-119 -204h-57l-119 204h75l73 -145z" />
    <glyph glyph-name="Gcircumflex" unicode="&#x11c;" horiz-adv-x="731" 
d="M651 371v-329.999c-28 -14.667 -64.667 -26.5 -110 -35.5s-91.333 -13.5 -138 -13.5c-70.667 0 -131.667 14.5 -183 43.5s-90.5 70.833 -117.5 125.5s-40.5 120 -40.5 196c0 75.333 13.5 140.166 40.5 194.499s65.667 96 116 125s109.833 43.5 178.5 43.5
c50 0 95.833 -7.5 137.5 -22.5s77.5 -37.5 107.5 -67.5l-32 -63c-34.667 29.333 -68.5 50.5 -101.5 63.5s-70.167 19.5 -111.5 19.5c-80.667 0 -142.5 -25.167 -185.5 -75.5s-64.5 -122.833 -64.5 -217.5c0 -96.667 22 -170.167 66 -220.5s108 -75.5 192 -75.5
c59.333 0 116.333 9.33301 171 28v217h-177v65h252zM322 773.001h-74l120 153h55l120 -153h-74l-73 104z" />
    <glyph glyph-name="gcircumflex" unicode="&#x11d;" horiz-adv-x="604" 
d="M526 503v-499.002c0 -74.667 -19.167 -131.167 -57.5 -169.5s-94.833 -57.5 -169.5 -57.5c-76.667 0 -142.667 17.333 -198 52l14 66c32 -18 62.167 -31 90.5 -39s59.5 -12 93.5 -12c48.667 0 85.334 12.833 110.001 38.5s37 63.834 37 114.501v119
c-15.333 -32 -37.833 -56.833 -67.5 -74.5s-64.834 -26.5 -105.501 -26.5c-44 0 -83.167 10.333 -117.5 31s-60.833 50 -79.5 88s-28 81.667 -28 131s9.33301 93 28 131s45.167 67.333 79.5 88s73.5 31 117.5 31c40 0 74.833 -8.66699 104.5 -26
s52.167 -41.666 67.5 -72.999v87h81zM403.5 131.498c27.667 32.333 41.5 76.833 41.5 133.5s-13.833 101.167 -41.5 133.5s-65.834 48.5 -114.501 48.5c-49.333 0 -88.166 -16.167 -116.499 -48.5s-42.5 -76.833 -42.5 -133.5s14.167 -101.167 42.5 -133.5
s67.166 -48.5 116.499 -48.5c48.667 0 86.834 16.167 114.501 48.5zM231 567.998h-75l119 204h57l119 -204h-75l-72 144z" />
    <glyph glyph-name="Gbreve" unicode="&#x11e;" horiz-adv-x="731" 
d="M651 371v-329.999c-28 -14.667 -64.667 -26.5 -110 -35.5s-91.333 -13.5 -138 -13.5c-70.667 0 -131.667 14.5 -183 43.5s-90.5 70.833 -117.5 125.5s-40.5 120 -40.5 196c0 75.333 13.5 140.166 40.5 194.499s65.667 96 116 125s109.833 43.5 178.5 43.5
c50 0 95.833 -7.5 137.5 -22.5s77.5 -37.5 107.5 -67.5l-32 -63c-34.667 29.333 -68.5 50.5 -101.5 63.5s-70.167 19.5 -111.5 19.5c-80.667 0 -142.5 -25.167 -185.5 -75.5s-64.5 -122.833 -64.5 -217.5c0 -96.667 22 -170.167 66 -220.5s108 -75.5 192 -75.5
c59.333 0 116.333 9.33301 171 28v217h-177v65h252zM296 810.501c-28.667 17 -50.333 44.167 -65 81.5l51 22c15.333 -26.667 32 -45.167 50 -55.5s39.333 -15.5 64 -15.5s45.834 5.16699 63.501 15.5s34.167 28.833 49.5 55.5l51 -22
c-14.667 -37.333 -36.334 -64.5 -65.001 -81.5s-61.667 -25.5 -99 -25.5c-38 0 -71.333 8.5 -100 25.5z" />
    <glyph glyph-name="gbreve" unicode="&#x11f;" horiz-adv-x="604" 
d="M526 503v-499.002c0 -74.667 -19.167 -131.167 -57.5 -169.5s-94.833 -57.5 -169.5 -57.5c-76.667 0 -142.667 17.333 -198 52l14 66c32 -18 62.167 -31 90.5 -39s59.5 -12 93.5 -12c48.667 0 85.334 12.833 110.001 38.5s37 63.834 37 114.501v119
c-15.333 -32 -37.833 -56.833 -67.5 -74.5s-64.834 -26.5 -105.501 -26.5c-44 0 -83.167 10.333 -117.5 31s-60.833 50 -79.5 88s-28 81.667 -28 131s9.33301 93 28 131s45.167 67.333 79.5 88s73.5 31 117.5 31c40 0 74.833 -8.66699 104.5 -26
s52.167 -41.666 67.5 -72.999v87h81zM403.5 131.498c27.667 32.333 41.5 76.833 41.5 133.5s-13.833 101.167 -41.5 133.5s-65.834 48.5 -114.501 48.5c-49.333 0 -88.166 -16.167 -116.499 -48.5s-42.5 -76.833 -42.5 -133.5s14.167 -101.167 42.5 -133.5
s67.166 -48.5 116.499 -48.5c48.667 0 86.834 16.167 114.501 48.5zM203 629.498c-30 21 -52 53.167 -66 96.5l51 22c14.667 -32 31.667 -55 51 -69s41 -21 65 -21c48.667 0 87 30 115 90l51 -22c-14 -43.333 -35.833 -75.5 -65.5 -96.5s-63.167 -31.5 -100.5 -31.5
s-71 10.5 -101 31.5z" />
    <glyph glyph-name="Gdotaccent" unicode="&#x120;" horiz-adv-x="731" 
d="M651 371v-329.999c-28 -14.667 -64.667 -26.5 -110 -35.5s-91.333 -13.5 -138 -13.5c-70.667 0 -131.667 14.5 -183 43.5s-90.5 70.833 -117.5 125.5s-40.5 120 -40.5 196c0 75.333 13.5 140.166 40.5 194.499s65.667 96 116 125s109.833 43.5 178.5 43.5
c50 0 95.833 -7.5 137.5 -22.5s77.5 -37.5 107.5 -67.5l-32 -63c-34.667 29.333 -68.5 50.5 -101.5 63.5s-70.167 19.5 -111.5 19.5c-80.667 0 -142.5 -25.167 -185.5 -75.5s-64.5 -122.833 -64.5 -217.5c0 -96.667 22 -170.167 66 -220.5s108 -75.5 192 -75.5
c59.333 0 116.333 9.33301 171 28v217h-177v65h252zM346 896.001h99v-92h-99v92z" />
    <glyph glyph-name="gdotaccent" unicode="&#x121;" horiz-adv-x="604" 
d="M526 503v-499.002c0 -74.667 -19.167 -131.167 -57.5 -169.5s-94.833 -57.5 -169.5 -57.5c-76.667 0 -142.667 17.333 -198 52l14 66c32 -18 62.167 -31 90.5 -39s59.5 -12 93.5 -12c48.667 0 85.334 12.833 110.001 38.5s37 63.834 37 114.501v119
c-15.333 -32 -37.833 -56.833 -67.5 -74.5s-64.834 -26.5 -105.501 -26.5c-44 0 -83.167 10.333 -117.5 31s-60.833 50 -79.5 88s-28 81.667 -28 131s9.33301 93 28 131s45.167 67.333 79.5 88s73.5 31 117.5 31c40 0 74.833 -8.66699 104.5 -26
s52.167 -41.666 67.5 -72.999v87h81zM403.5 131.498c27.667 32.333 41.5 76.833 41.5 133.5s-13.833 101.167 -41.5 133.5s-65.834 48.5 -114.501 48.5c-49.333 0 -88.166 -16.167 -116.499 -48.5s-42.5 -76.833 -42.5 -133.5s14.167 -101.167 42.5 -133.5
s67.166 -48.5 116.499 -48.5c48.667 0 86.834 16.167 114.501 48.5zM254 715.998h99v-92h-99v92z" />
    <glyph glyph-name="Gcommaaccent" unicode="&#x122;" horiz-adv-x="731" 
d="M651 371v-329.999c-28 -14.667 -64.667 -26.5 -110 -35.5s-91.333 -13.5 -138 -13.5c-70.667 0 -131.667 14.5 -183 43.5s-90.5 70.833 -117.5 125.5s-40.5 120 -40.5 196c0 75.333 13.5 140.166 40.5 194.499s65.667 96 116 125s109.833 43.5 178.5 43.5
c50 0 95.833 -7.5 137.5 -22.5s77.5 -37.5 107.5 -67.5l-32 -63c-34.667 29.333 -68.5 50.5 -101.5 63.5s-70.167 19.5 -111.5 19.5c-80.667 0 -142.5 -25.167 -185.5 -75.5s-64.5 -122.833 -64.5 -217.5c0 -96.667 22 -170.167 66 -220.5s108 -75.5 192 -75.5
c59.333 0 116.333 9.33301 171 28v217h-177v65h252zM452 -72.999l0.000976562 -58c0 -26.667 -3.83301 -50.5 -11.5 -71.5s-21.167 -40.833 -40.5 -59.5l-37 28c12.667 13.333 21.667 26 27 38s8.66602 25.333 9.99902 40h-47v83h99z" />
    <glyph glyph-name="gcommaaccent" unicode="&#x123;" horiz-adv-x="604" 
d="M526 503v-499.002c0 -74.667 -19.167 -131.167 -57.5 -169.5s-94.833 -57.5 -169.5 -57.5c-76.667 0 -142.667 17.333 -198 52l14 66c32 -18 62.167 -31 90.5 -39s59.5 -12 93.5 -12c48.667 0 85.334 12.833 110.001 38.5s37 63.834 37 114.501v119
c-15.333 -32 -37.833 -56.833 -67.5 -74.5s-64.834 -26.5 -105.501 -26.5c-44 0 -83.167 10.333 -117.5 31s-60.833 50 -79.5 88s-28 81.667 -28 131s9.33301 93 28 131s45.167 67.333 79.5 88s73.5 31 117.5 31c40 0 74.833 -8.66699 104.5 -26
s52.167 -41.666 67.5 -72.999v87h81zM403.5 131.498c27.667 32.333 41.5 76.833 41.5 133.5s-13.833 101.167 -41.5 133.5s-65.834 48.5 -114.501 48.5c-49.333 0 -88.166 -16.167 -116.499 -48.5s-42.5 -76.833 -42.5 -133.5s14.167 -101.167 42.5 -133.5
s67.166 -48.5 116.499 -48.5c48.667 0 86.834 16.167 114.501 48.5zM353 679.998l-0.00195312 -83h-99v58c0 26.667 3.83301 50.5 11.5 71.5s20.834 40.833 39.501 59.5l37 -28c-12 -12.667 -20.667 -25.167 -26 -37.5s-8.66602 -25.833 -9.99902 -40.5h47z" />
    <glyph glyph-name="Hcircumflex" unicode="&#x124;" horiz-adv-x="766" 
d="M596 712h82v-712h-82v327h-427v-327h-81v712h81v-316h427v316zM309 773h-74l120 153h55l120 -153h-74l-73 104z" />
    <glyph glyph-name="hcircumflex" unicode="&#x125;" horiz-adv-x="585" 
d="M510 316v-316h-81v312c0 46.667 -9.33301 80.834 -28 102.501s-48 32.5 -88 32.5c-46.667 0 -84 -14.333 -112 -43s-42 -67.334 -42 -116.001v-288h-81v736h81v-315c16 30.667 38.833 54 68.5 70s63.5 24 101.5 24c120.667 0 181 -66.333 181 -199zM46 797h-74l120 153
h55l120 -153h-74l-73 104z" />
    <glyph glyph-name="Hbar" unicode="&#x126;" horiz-adv-x="793" 
d="M785 591v-66h-93v-525h-83v327h-425v-327h-83v525h-93v66h93v121h83v-121h425v121h83v-121h93zM609 396v129h-425v-129h425z" />
    <glyph glyph-name="hbar" unicode="&#x127;" horiz-adv-x="585" 
d="M510 316v-316h-81v312c0 46.667 -9.33301 80.834 -28 102.501s-48 32.5 -88 32.5c-46.667 0 -84 -14.333 -112 -43s-42 -67.334 -42 -116.001v-288h-81v582h-95v61h95v93h81v-93h200v-61h-200v-161c16 30.667 38.833 54 68.5 70s63.5 24 101.5 24
c120.667 0 181 -66.333 181 -199z" />
    <glyph glyph-name="Itilde" unicode="&#x128;" horiz-adv-x="258" 
d="M88 0v712h82v-712h-82zM-9.5 879.5c16.333 20.333 38.166 30.5 65.499 30.5c14 0 27.333 -2.83301 40 -8.5s27.667 -13.834 45 -24.501c14 -8.66699 25.167 -15 33.5 -19s16.5 -6 24.5 -6c14.667 0 26.167 5.33301 34.5 16s12.5 23.667 12.5 39h45
c0 -36.667 -8.16699 -65.167 -24.5 -85.5s-38.166 -30.5 -65.499 -30.5c-14 0 -27.333 2.83301 -40 8.5s-27.667 13.834 -45 24.501c-14 8.66699 -25.167 15 -33.5 19s-16.5 6 -24.5 6c-14.667 0 -26.167 -5.33301 -34.5 -16s-12.5 -23.667 -12.5 -39h-45
c0 36.667 8.16699 65.167 24.5 85.5z" />
    <glyph glyph-name="itilde" unicode="&#x129;" horiz-adv-x="238" 
d="M78 0v503h81v-503h-81zM-18.5 700c16.333 20 38.166 30 65.499 30c14 0 27.333 -2.83301 40 -8.5s27.667 -13.834 45 -24.501c14 -8.66699 25.167 -15 33.5 -19s16.5 -6 24.5 -6c14.667 0 26.167 5.33301 34.5 16s12.5 23.667 12.5 39h45
c0 -36.667 -8.16699 -65 -24.5 -85s-38.166 -30 -65.499 -30c-14 0 -27.333 2.83301 -40 8.5s-27.667 13.834 -45 24.501c-14 8.66699 -25.167 15 -33.5 19s-16.5 6 -24.5 6c-14.667 0 -26.167 -5.33301 -34.5 -16s-12.5 -23.667 -12.5 -39h-45c0 36.667 8.16699 65 24.5 85
z" />
    <glyph glyph-name="Imacron" unicode="&#x12a;" horiz-adv-x="258" 
d="M88 0v712h82v-712h-82zM-23 819v62h303v-62h-303z" />
    <glyph glyph-name="imacron" unicode="&#x12b;" horiz-adv-x="238" 
d="M78 0v503h81v-503h-81zM-32 639v62h303v-62h-303z" />
    <glyph glyph-name="Ibreve" unicode="&#x12c;" horiz-adv-x="258" 
d="M88 0v712h82v-712h-82zM29 810.5c-28.667 17 -50.333 44.167 -65 81.5l51 22c15.333 -26.667 32 -45.167 50 -55.5s39.333 -15.5 64 -15.5s45.834 5.16699 63.501 15.5s34.167 28.833 49.5 55.5l51 -22c-14.667 -37.333 -36.334 -64.5 -65.001 -81.5
s-61.667 -25.5 -99 -25.5c-38 0 -71.333 8.5 -100 25.5z" />
    <glyph glyph-name="ibreve" unicode="&#x12d;" horiz-adv-x="238" 
d="M78 0v503h81v-503h-81zM19 629.5c-30 21 -52 53.167 -66 96.5l51 22c14.667 -32 31.667 -55 51 -69s41 -21 65 -21c48.667 0 87 30 115 90l51 -22c-14 -43.333 -35.833 -75.5 -65.5 -96.5s-63.167 -31.5 -100.5 -31.5s-71 10.5 -101 31.5z" />
    <glyph glyph-name="Iogonek" unicode="&#x12e;" horiz-adv-x="258" 
d="M214 -172c-26 -15.333 -54.668 -23 -86.001 -23c-35.333 0 -64 10 -86 30s-33 45.667 -33 77c0 24 6.83301 45.833 20.5 65.5s33.167 35.167 58.5 46.5v688h82v-712h-7c-27.333 0 -49.166 -7.5 -65.499 -22.5s-24.5 -33.5 -24.5 -55.5c0 -20 6 -35.5 18 -46.5
s28 -16.5 48 -16.5c18 0 37.667 5.66699 59 17z" />
    <glyph glyph-name="iogonek" unicode="&#x12f;" horiz-adv-x="238" 
d="M169 720v-92h-100v92h100zM206 -176c-27.333 -15.333 -57.002 -23.001 -89.002 -23.001c-35.333 0 -64.166 10 -86.499 30s-33.5 46.333 -33.5 79c0 24.667 7 47 21 67s34 36 60 48v478h81v-503h-5c-29.333 0 -52.333 -7.66699 -69 -23s-25 -34.333 -25 -57
c0 -21.333 6.33301 -37.666 19 -48.999s29.667 -17 51 -17c18.667 0 38.334 6.33301 59.001 19z" />
    <glyph glyph-name="Idotaccent" unicode="&#x130;" horiz-adv-x="258" 
d="M88 0v712h82v-712h-82zM79 896h99v-92h-99v92z" />
    <glyph glyph-name="dotlessi" unicode="&#x131;" horiz-adv-x="238" 
d="M78 0v503h81v-503h-81z" />
    <glyph glyph-name="Jcircumflex" unicode="&#x134;" horiz-adv-x="329" 
d="M-5 -107c30 -5.33301 54 -8 72 -8c34 0 57.833 9.5 71.5 28.5s20.5 51.5 20.5 97.5v701h82v-702c0 -69.333 -12.5 -119.333 -37.5 -150s-66.167 -46 -123.5 -46c-22.667 0 -51 2.66699 -85 8v71zM126 773h-74l120 153h55l120 -153h-74l-73 104z" />
    <glyph glyph-name="jcircumflex" unicode="&#x135;" horiz-adv-x="238" 
d="M-6 -150c56 0 84 33.333 84 100v553h81v-563c0 -52.667 -13.167 -92.5 -39.5 -119.5s-62.5 -40.5 -108.5 -40.5c-22 0 -44 3 -66 9v69c18 -5.33301 34.333 -8 49 -8zM46 568h-75l119 204h57l119 -204h-75l-72 144z" />
    <glyph glyph-name="Kcommaaccent" unicode="&#x136;" horiz-adv-x="634" 
d="M644 0h-107l-367 339v-339h-82v712h82v-327l350 327h105l-372 -347zM368 -73l0.000976562 -58c0 -26.667 -3.83301 -50.5 -11.5 -71.5s-21.167 -40.833 -40.5 -59.5l-37 28c12.667 13.333 21.667 26 27 38s8.66602 25.333 9.99902 40h-47v83h99z" />
    <glyph glyph-name="kcommaaccent" unicode="&#x137;" horiz-adv-x="515" 
d="M523 0h-106l-258 242v-242h-81v736h81v-464l237 230h103l-252 -241zM306 -73l0.000976562 -58c0 -26.667 -3.83301 -50.5 -11.5 -71.5s-21.167 -40.833 -40.5 -59.5l-37 28c12.667 13.333 21.667 26 27 38s8.66602 25.333 9.99902 40h-47v83h99z" />
    <glyph glyph-name="kgreenlandic" unicode="&#x138;" horiz-adv-x="515" 
d="M523 0h-106l-258 242v-242h-81v503h81v-231l237 230h103l-252 -241z" />
    <glyph glyph-name="Lacute" unicode="&#x139;" horiz-adv-x="545" 
d="M88 0v712h82v-642h357v-70h-439zM157 773h-57l102 153h89z" />
    <glyph glyph-name="lacute" unicode="&#x13a;" horiz-adv-x="238" 
d="M78 0v736h81v-736h-81zM148 797h-57l102 153h89z" />
    <glyph glyph-name="Lcommaaccent" unicode="&#x13b;" horiz-adv-x="545" 
d="M88 0v712h82v-642h357v-70h-439zM361 -73l0.000976562 -58c0 -26.667 -3.83301 -50.5 -11.5 -71.5s-21.167 -40.833 -40.5 -59.5l-37 28c12.667 13.333 21.667 26 27 38s8.66602 25.333 9.99902 40h-47v83h99z" />
    <glyph glyph-name="lcommaaccent" unicode="&#x13c;" horiz-adv-x="238" 
d="M78 0v736h81v-736h-81zM169 -73l0.000976562 -58c0 -26.667 -3.83301 -50.5 -11.5 -71.5s-21.167 -40.833 -40.5 -59.5l-37 28c12.667 13.333 21.667 26 27 38s8.66602 25.333 9.99902 40h-47v83h99z" />
    <glyph glyph-name="Lcaron" unicode="&#x13d;" horiz-adv-x="545" 
d="M88 0v712h82v-642h357v-70h-439zM299 520h-43v192h69z" />
    <glyph glyph-name="lcaron" unicode="&#x13e;" horiz-adv-x="238" 
d="M78 0v736h81v-736h-81zM235 540h-38v196h65z" />
    <glyph glyph-name="Ldot" unicode="&#x13f;" horiz-adv-x="545" 
d="M88 0v712h82v-642h357v-70h-439zM301 404h103v-95h-103v95z" />
    <glyph glyph-name="ldot" unicode="&#x140;" horiz-adv-x="267" 
d="M78 0v736h81v-736h-81zM195 406h103v-95h-103v95z" />
    <glyph glyph-name="Lslash" unicode="&#x141;" horiz-adv-x="559" 
d="M184 70h357v-70h-440v298l-92 -53v77l92 53v337h83v-289l189 109v-77l-189 -109v-276z" />
    <glyph glyph-name="lslash" unicode="&#x142;" horiz-adv-x="289" 
d="M297 417l-112 -64v-353h-81v306l-78 -45l-33 58l111 65v352h81v-305l78 45z" />
    <glyph glyph-name="Nacute" unicode="&#x143;" horiz-adv-x="746" 
d="M581 712h78v-712h-64l-430 573v-573h-77v712h63l430 -573v573zM401 773h-57l102 153h89z" />
    <glyph glyph-name="nacute" unicode="&#x144;" horiz-adv-x="585" 
d="M510 316v-316.001h-81v312c0 46.667 -9.33301 80.834 -28 102.501s-48 32.5 -88 32.5c-46.667 0 -84 -14.333 -112 -43s-42 -67.334 -42 -116.001v-288h-81v362c0 52 -2.66699 99 -8 141h77l8 -90c15.333 32.667 38.333 57.834 69 75.501s65.667 26.5 105 26.5
c120.667 0 181 -66.333 181 -199zM322 567.999h-57l100 204h94z" />
    <glyph glyph-name="Ncommaaccent" unicode="&#x145;" horiz-adv-x="746" 
d="M581 712h78v-712h-64l-430 573v-573h-77v712h63l430 -573v573zM423 -73l0.000976562 -58c0 -26.667 -3.83301 -50.5 -11.5 -71.5s-21.167 -40.833 -40.5 -59.5l-37 28c12.667 13.333 21.667 26 27 38s8.66602 25.333 9.99902 40h-47v83h99z" />
    <glyph glyph-name="ncommaaccent" unicode="&#x146;" horiz-adv-x="585" 
d="M510 316v-316.001h-81v312c0 46.667 -9.33301 80.834 -28 102.501s-48 32.5 -88 32.5c-46.667 0 -84 -14.333 -112 -43s-42 -67.334 -42 -116.001v-288h-81v362c0 52 -2.66699 99 -8 141h77l8 -90c15.333 32.667 38.333 57.834 69 75.501s65.667 26.5 105 26.5
c120.667 0 181 -66.333 181 -199zM343 -73.001l0.000976562 -58c0 -26.667 -3.83301 -50.5 -11.5 -71.5s-21.167 -40.833 -40.5 -59.5l-37 28c12.667 13.333 21.667 26 27 38s8.66602 25.333 9.99902 40h-47v83h99z" />
    <glyph glyph-name="Ncaron" unicode="&#x147;" horiz-adv-x="746" 
d="M581 712h78v-712h-64l-430 573v-573h-77v712h63l430 -573v573zM446 926h74l-120 -153h-55l-120 153h74l74 -105z" />
    <glyph glyph-name="ncaron" unicode="&#x148;" horiz-adv-x="585" 
d="M510 316v-316.001h-81v312c0 46.667 -9.33301 80.834 -28 102.501s-48 32.5 -88 32.5c-46.667 0 -84 -14.333 -112 -43s-42 -67.334 -42 -116.001v-288h-81v362c0 52 -2.66699 99 -8 141h77l8 -90c15.333 32.667 38.333 57.834 69 75.501s65.667 26.5 105 26.5
c120.667 0 181 -66.333 181 -199zM366 771.999h75l-119 -204h-57l-119 204h75l73 -145z" />
    <glyph glyph-name="napostrophe" unicode="&#x149;" horiz-adv-x="585" 
d="M198 761l0.000976562 -58c0 -26.667 -3.83301 -50.5 -11.5 -71.5s-20.834 -40.833 -39.501 -59.5l-37 28c12.667 13.333 21.5 26 26.5 38s8.16699 25.333 9.5 40h-47v83h99zM510.001 316v-316.001h-81v312c0 46.667 -9.33301 80.834 -28 102.501s-48 32.5 -88 32.5
c-46.667 0 -84 -14.333 -112 -43s-42 -67.334 -42 -116.001v-288h-81v362c0 52 -2.66699 99 -8 141h77l8 -90c15.333 32.667 38.333 57.834 69 75.501s65.667 26.5 105 26.5c120.667 0 181 -66.333 181 -199z" />
    <glyph glyph-name="Eng" unicode="&#x14a;" horiz-adv-x="746" 
d="M659 712l0.000976562 -711c0 -116 -59.333 -177.667 -178 -185l-66 -5l-5 68l60 4c35.333 2.66699 62.666 13.5 81.999 32.5s29 46.167 29 81.5v22l-416 554v-573h-77v712h63l430 -573v573h78z" />
    <glyph glyph-name="eng" unicode="&#x14b;" horiz-adv-x="585" 
d="M510 316l-0.000976562 -355.001c0 -120.667 -49.333 -181 -148 -181c-21.333 0 -43.333 2.66699 -66 8v70c18 -5.33301 34.333 -8 49 -8c26.667 0 47.334 8.66699 62.001 26s22 49 22 95v341c0 46.667 -9.33301 80.834 -28 102.501s-48 32.5 -88 32.5
c-46.667 0 -84 -14.333 -112 -43s-42 -67.334 -42 -116.001v-288h-81v362c0 52 -2.66699 99 -8 141h77l8 -90c15.333 32.667 38.333 57.834 69 75.501s65.667 26.5 105 26.5c120.667 0 181 -66.333 181 -199z" />
    <glyph glyph-name="Omacron" unicode="&#x14c;" horiz-adv-x="772" 
d="M214 36c-48.667 29.333 -86.1689 71.501 -112.502 126.501s-39.5 119.5 -39.5 193.5c0 74.667 13 139.334 39 194.001s63.333 96.667 112 126s106.334 44 173.001 44s124.334 -14.667 173.001 -44s86 -71.333 112 -126s39 -119 39 -193
c0 -74.667 -13.167 -139.334 -39.5 -194.001s-63.833 -96.834 -112.5 -126.501s-106 -44.5 -172 -44.5s-123.333 14.667 -172 44zM561.998 139.001c42 51.333 63 124 63 218s-20.833 166.333 -62.5 217s-100.5 76 -176.5 76s-135 -25.5 -177 -76.5s-63 -123.167 -63 -216.5
c0 -94 21 -166.667 63 -218s101 -77 177 -77c75.333 0 134 25.667 176 77zM232.998 819.001v62h303v-62h-303z" />
    <glyph glyph-name="omacron" unicode="&#x14d;" horiz-adv-x="572" 
d="M161 25c-36 21.333 -63.833 51.666 -83.5 90.999s-29.5 85.333 -29.5 138s9.83301 98.667 29.5 138s47.5 69.666 83.5 90.999s77.667 32 125 32s89 -10.667 125 -32s63.833 -51.666 83.5 -90.999s29.5 -85.333 29.5 -138s-9.83301 -98.667 -29.5 -138
s-47.5 -69.666 -83.5 -90.999s-77.667 -32 -125 -32s-89 10.667 -125 32zM401 109.5c26.667 33 39.999 81.167 39.999 144.5c0 61.333 -13.667 108.833 -41 142.5s-65.333 50.5 -114 50.5c-49.333 0 -87.666 -16.833 -114.999 -50.5s-41 -81.167 -41 -142.5
c0 -63.333 13.5 -111.5 40.5 -144.5s65.5 -49.5 115.5 -49.5s88.333 16.5 115 49.5zM133.999 639v62h303v-62h-303z" />
    <glyph glyph-name="Obreve" unicode="&#x14e;" horiz-adv-x="772" 
d="M214 36c-48.667 29.333 -86.1689 71.501 -112.502 126.501s-39.5 119.5 -39.5 193.5c0 74.667 13 139.334 39 194.001s63.333 96.667 112 126s106.334 44 173.001 44s124.334 -14.667 173.001 -44s86 -71.333 112 -126s39 -119 39 -193
c0 -74.667 -13.167 -139.334 -39.5 -194.001s-63.833 -96.834 -112.5 -126.501s-106 -44.5 -172 -44.5s-123.333 14.667 -172 44zM561.998 139.001c42 51.333 63 124 63 218s-20.833 166.333 -62.5 217s-100.5 76 -176.5 76s-135 -25.5 -177 -76.5s-63 -123.167 -63 -216.5
c0 -94 21 -166.667 63 -218s101 -77 177 -77c75.333 0 134 25.667 176 77zM284.998 810.501c-28.667 17 -50.333 44.167 -65 81.5l51 22c15.333 -26.667 32 -45.167 50 -55.5s39.333 -15.5 64 -15.5s45.834 5.16699 63.501 15.5s34.167 28.833 49.5 55.5l51 -22
c-14.667 -37.333 -36.334 -64.5 -65.001 -81.5s-61.667 -25.5 -99 -25.5c-38 0 -71.333 8.5 -100 25.5z" />
    <glyph glyph-name="obreve" unicode="&#x14f;" horiz-adv-x="572" 
d="M161 25c-36 21.333 -63.833 51.666 -83.5 90.999s-29.5 85.333 -29.5 138s9.83301 98.667 29.5 138s47.5 69.666 83.5 90.999s77.667 32 125 32s89 -10.667 125 -32s63.833 -51.666 83.5 -90.999s29.5 -85.333 29.5 -138s-9.83301 -98.667 -29.5 -138
s-47.5 -69.666 -83.5 -90.999s-77.667 -32 -125 -32s-89 10.667 -125 32zM401 109.5c26.667 33 39.999 81.167 39.999 144.5c0 61.333 -13.667 108.833 -41 142.5s-65.333 50.5 -114 50.5c-49.333 0 -87.666 -16.833 -114.999 -50.5s-41 -81.167 -41 -142.5
c0 -63.333 13.5 -111.5 40.5 -144.5s65.5 -49.5 115.5 -49.5s88.333 16.5 115 49.5zM184.999 629.5c-30 21 -52 53.167 -66 96.5l51 22c14.667 -32 31.667 -55 51 -69s41 -21 65 -21c48.667 0 87 30 115 90l51 -22c-14 -43.333 -35.833 -75.5 -65.5 -96.5
s-63.167 -31.5 -100.5 -31.5s-71 10.5 -101 31.5z" />
    <glyph glyph-name="Ohungarumlaut" unicode="&#x150;" horiz-adv-x="772" 
d="M214 36c-48.667 29.333 -86.1689 71.501 -112.502 126.501s-39.5 119.5 -39.5 193.5c0 74.667 13 139.334 39 194.001s63.333 96.667 112 126s106.334 44 173.001 44s124.334 -14.667 173.001 -44s86 -71.333 112 -126s39 -119 39 -193
c0 -74.667 -13.167 -139.334 -39.5 -194.001s-63.833 -96.834 -112.5 -126.501s-106 -44.5 -172 -44.5s-123.333 14.667 -172 44zM561.998 139.001c42 51.333 63 124 63 218s-20.833 166.333 -62.5 217s-100.5 76 -176.5 76s-135 -25.5 -177 -76.5s-63 -123.167 -63 -216.5
c0 -94 21 -166.667 63 -218s101 -77 177 -77c75.333 0 134 25.667 176 77zM301.998 773.001l71 153h72l-99 -153h-44zM422.998 773.001l72 153h70l-98 -153h-44z" />
    <glyph glyph-name="ohungarumlaut" unicode="&#x151;" horiz-adv-x="572" 
d="M161 25c-36 21.333 -63.833 51.666 -83.5 90.999s-29.5 85.333 -29.5 138s9.83301 98.667 29.5 138s47.5 69.666 83.5 90.999s77.667 32 125 32s89 -10.667 125 -32s63.833 -51.666 83.5 -90.999s29.5 -85.333 29.5 -138s-9.83301 -98.667 -29.5 -138
s-47.5 -69.666 -83.5 -90.999s-77.667 -32 -125 -32s-89 10.667 -125 32zM401 109.5c26.667 33 39.999 81.167 39.999 144.5c0 61.333 -13.667 108.833 -41 142.5s-65.333 50.5 -114 50.5c-49.333 0 -87.666 -16.833 -114.999 -50.5s-41 -81.167 -41 -142.5
c0 -63.333 13.5 -111.5 40.5 -144.5s65.5 -49.5 115.5 -49.5s88.333 16.5 115 49.5zM244.999 568h-41l46 204h75zM366.999 568h-41l45 204h76z" />
    <glyph glyph-name="OE" unicode="&#x152;" horiz-adv-x="1056" 
d="M637 644v-248.001h349v-69h-349v-259h369v-68h-447v46c-46.667 -36 -106.334 -54 -179.001 -54c-64 0 -120 14.833 -168 44.5s-85 72 -111 127s-39 119.167 -39 192.5c0 74 13 138.333 39 193s62.833 96.834 110.5 126.501s103.834 44.5 168.501 44.5
c72 0 131.667 -17.667 179 -53v45h447v-68h-369zM209 139.499c42 -51.667 100.999 -77.5 176.999 -77.5c72.667 0 129.334 19 170.001 57v475c-41.333 37.333 -98 56 -170 56c-76 0 -135 -25.667 -177 -77s-63 -123.333 -63 -216c0 -93.333 21 -165.833 63 -217.5z" />
    <glyph glyph-name="oe" unicode="&#x153;" horiz-adv-x="933" 
d="M888 239l-365.004 0.000976562c3.33301 -59.333 19 -104 47 -134s68.333 -45 121 -45c56.667 0 110.334 19.667 161.001 59l28 -59c-22 -20.667 -50.167 -37 -84.5 -49s-68.833 -18 -103.5 -18c-49.333 0 -91.666 10.333 -126.999 31s-62.666 50.334 -81.999 89.001
c-18.667 -38 -45 -67.5 -79 -88.5s-73.667 -31.5 -119 -31.5c-47.333 0 -88.833 10.667 -124.5 32s-63.334 51.666 -83.001 90.999s-29.5 85.333 -29.5 138s9.83301 98.667 29.5 138s47.334 69.666 83.001 90.999s77.167 32 124.5 32c45.333 0 84.833 -10.333 118.5 -31
s59.834 -50 78.501 -88c19.333 37.333 46 66.5 80 87.5s73.333 31.5 118 31.5c64 0 114.667 -22 152 -66s56 -104 56 -180v-30zM572.996 410.001c-26.667 -28 -42.666 -67.333 -47.999 -118h292c-2 52 -14.833 91.667 -38.5 119s-56.834 41 -99.501 41
c-44 0 -79.333 -14 -106 -42zM399.997 109.501c26.667 33 39.999 81.167 39.999 144.5c0 62 -13.5 109.667 -40.5 143s-64.833 50 -113.5 50c-49.333 0 -87.666 -16.833 -114.999 -50.5s-41 -81.167 -41 -142.5c0 -63.333 13.333 -111.5 40 -144.5s65 -49.5 115 -49.5
s88.333 16.5 115 49.5z" />
    <glyph glyph-name="Racute" unicode="&#x154;" horiz-adv-x="693" 
d="M647 0h-87.001l-88 237c-10.667 29.333 -25.5 49 -44.5 59s-45.833 15 -80.5 15h-178v-311h-81v712h283c76.667 0 135.5 -17 176.5 -51s61.5 -83 61.5 -147c0 -46.667 -12.167 -85.834 -36.5 -117.501s-59.5 -54.167 -105.5 -67.5
c20.667 -3.33301 38.334 -12.166 53.001 -26.499s27 -34.833 37 -61.5zM363.999 379c109.333 0 164 44.667 164 134c0 44 -13.333 76.833 -40 98.5s-68 32.5 -124 32.5h-195v-265h195zM371.999 773h-57l102 153h89z" />
    <glyph glyph-name="racute" unicode="&#x155;" horiz-adv-x="362" 
d="M358 509l-1.99902 -74.001c-15.333 5.33301 -33 8 -53 8c-48.667 0 -84.834 -15.167 -108.501 -45.5s-35.5 -67.166 -35.5 -110.499v-287h-81v362c0 52 -2.66699 99 -8 141h77l8 -93c12.667 34 33 60 61 78s60 27 96 27c16.667 0 32 -2 46 -6zM249.001 567.999h-57
l100 204h94z" />
    <glyph glyph-name="Rcommaaccent" unicode="&#x156;" horiz-adv-x="693" 
d="M647 0h-87.001l-88 237c-10.667 29.333 -25.5 49 -44.5 59s-45.833 15 -80.5 15h-178v-311h-81v712h283c76.667 0 135.5 -17 176.5 -51s61.5 -83 61.5 -147c0 -46.667 -12.167 -85.834 -36.5 -117.501s-59.5 -54.167 -105.5 -67.5
c20.667 -3.33301 38.334 -12.166 53.001 -26.499s27 -34.833 37 -61.5zM363.999 379c109.333 0 164 44.667 164 134c0 44 -13.333 76.833 -40 98.5s-68 32.5 -124 32.5h-195v-265h195zM392.999 -73l0.000976562 -58c0 -26.667 -3.83301 -50.5 -11.5 -71.5
s-21.167 -40.833 -40.5 -59.5l-37 28c12.667 13.333 21.667 26 27 38s8.66602 25.333 9.99902 40h-47v83h99z" />
    <glyph glyph-name="rcommaaccent" unicode="&#x157;" horiz-adv-x="362" 
d="M358 509l-1.99902 -74.001c-15.333 5.33301 -33 8 -53 8c-48.667 0 -84.834 -15.167 -108.501 -45.5s-35.5 -67.166 -35.5 -110.499v-287h-81v362c0 52 -2.66699 99 -8 141h77l8 -93c12.667 34 33 60 61 78s60 27 96 27c16.667 0 32 -2 46 -6zM169.001 -73.001
l0.000976562 -58c0 -26.667 -3.83301 -50.5 -11.5 -71.5s-21.167 -40.833 -40.5 -59.5l-37 28c12.667 13.333 21.667 26 27 38s8.66602 25.333 9.99902 40h-47v83h99z" />
    <glyph glyph-name="Rcaron" unicode="&#x158;" horiz-adv-x="693" 
d="M647 0h-87.001l-88 237c-10.667 29.333 -25.5 49 -44.5 59s-45.833 15 -80.5 15h-178v-311h-81v712h283c76.667 0 135.5 -17 176.5 -51s61.5 -83 61.5 -147c0 -46.667 -12.167 -85.834 -36.5 -117.501s-59.5 -54.167 -105.5 -67.5
c20.667 -3.33301 38.334 -12.166 53.001 -26.499s27 -34.833 37 -61.5zM363.999 379c109.333 0 164 44.667 164 134c0 44 -13.333 76.833 -40 98.5s-68 32.5 -124 32.5h-195v-265h195zM416.999 926h74l-120 -153h-55l-120 153h74l74 -105z" />
    <glyph glyph-name="rcaron" unicode="&#x159;" horiz-adv-x="362" 
d="M358 509l-1.99902 -74.001c-15.333 5.33301 -33 8 -53 8c-48.667 0 -84.834 -15.167 -108.501 -45.5s-35.5 -67.166 -35.5 -110.499v-287h-81v362c0 52 -2.66699 99 -8 141h77l8 -93c12.667 34 33 60 61 78s60 27 96 27c16.667 0 32 -2 46 -6zM293.001 771.999h75
l-119 -204h-57l-119 204h75l73 -145z" />
    <glyph glyph-name="Sacute" unicode="&#x15a;" horiz-adv-x="623" 
d="M48 82l30.9971 62.999c35.333 -30 71.333 -51.333 108 -64s79.334 -19 128.001 -19c57.333 0 101.5 11.167 132.5 33.5s46.5 53.833 46.5 94.5c0 24 -7.5 43.5 -22.5 58.5s-34.667 26.833 -59 35.5s-56.833 17.667 -97.5 27c-54.667 12 -99.667 25 -135 39
s-64 34.167 -86 60.5s-33 60.833 -33 103.5c0 40.667 10.667 76.5 32 107.5s51.5 55.167 90.5 72.5s84.5 26 136.5 26c49.333 0 95.333 -7.66699 138 -23s78.667 -37.666 108 -66.999l-32 -63c-33.333 28.667 -67.166 49.667 -101.499 63s-71.833 20 -112.5 20
c-55.333 0 -98.666 -11.833 -129.999 -35.5s-47 -56.167 -47 -97.5c0 -36 13.667 -63 41 -81s69.333 -33.667 126 -47c61.333 -14.667 109.5 -28.167 144.5 -40.5s64.167 -31 87.5 -56s35 -58.167 35 -99.5c0 -40 -10.667 -75.167 -32 -105.5s-51.833 -53.833 -91.5 -70.5
s-86.167 -25 -139.5 -25c-111.333 0 -200 30 -266 90zM339.997 772.999h-57l102 153h89z" />
    <glyph glyph-name="sacute" unicode="&#x15b;" horiz-adv-x="496" 
d="M47 58l27.002 59.999c27.333 -21.333 55 -36.666 83 -45.999s59.333 -14 94 -14c38 0 66.833 6.5 86.5 19.5s29.5 31.833 29.5 56.5c0 20 -6.66699 36 -20 48s-35.333 21.333 -66 28l-85 20c-42 9.33301 -74.5 26 -97.5 50s-34.5 52.667 -34.5 86
c0 44 17.667 79.833 53 107.5s82 41.5 140 41.5c35.333 0 68.666 -5.66699 99.999 -17s57.666 -27.666 78.999 -48.999l-27 -59c-47.333 39.333 -98 59 -152 59c-36 0 -63.833 -6.83301 -83.5 -20.5s-29.5 -32.834 -29.5 -57.501c0 -20.667 6.16699 -37 18.5 -49
s32.166 -21.333 59.499 -28l85 -21c46.667 -10.667 81.334 -27.167 104.001 -49.5s34 -51.5 34 -87.5c0 -43.333 -17.667 -78 -53 -104s-83.333 -39 -144 -39c-84.667 0 -151.667 21.667 -201 65zM285.002 567.999h-57l100 204h94z" />
    <glyph glyph-name="Scircumflex" unicode="&#x15c;" horiz-adv-x="623" 
d="M48 82l30.9971 62.999c35.333 -30 71.333 -51.333 108 -64s79.334 -19 128.001 -19c57.333 0 101.5 11.167 132.5 33.5s46.5 53.833 46.5 94.5c0 24 -7.5 43.5 -22.5 58.5s-34.667 26.833 -59 35.5s-56.833 17.667 -97.5 27c-54.667 12 -99.667 25 -135 39
s-64 34.167 -86 60.5s-33 60.833 -33 103.5c0 40.667 10.667 76.5 32 107.5s51.5 55.167 90.5 72.5s84.5 26 136.5 26c49.333 0 95.333 -7.66699 138 -23s78.667 -37.666 108 -66.999l-32 -63c-33.333 28.667 -67.166 49.667 -101.499 63s-71.833 20 -112.5 20
c-55.333 0 -98.666 -11.833 -129.999 -35.5s-47 -56.167 -47 -97.5c0 -36 13.667 -63 41 -81s69.333 -33.667 126 -47c61.333 -14.667 109.5 -28.167 144.5 -40.5s64.167 -31 87.5 -56s35 -58.167 35 -99.5c0 -40 -10.667 -75.167 -32 -105.5s-51.833 -53.833 -91.5 -70.5
s-86.167 -25 -139.5 -25c-111.333 0 -200 30 -266 90zM237.997 772.999h-74l120 153h55l120 -153h-74l-73 104z" />
    <glyph glyph-name="scircumflex" unicode="&#x15d;" horiz-adv-x="496" 
d="M47 58l27.002 59.999c27.333 -21.333 55 -36.666 83 -45.999s59.333 -14 94 -14c38 0 66.833 6.5 86.5 19.5s29.5 31.833 29.5 56.5c0 20 -6.66699 36 -20 48s-35.333 21.333 -66 28l-85 20c-42 9.33301 -74.5 26 -97.5 50s-34.5 52.667 -34.5 86
c0 44 17.667 79.833 53 107.5s82 41.5 140 41.5c35.333 0 68.666 -5.66699 99.999 -17s57.666 -27.666 78.999 -48.999l-27 -59c-47.333 39.333 -98 59 -152 59c-36 0 -63.833 -6.83301 -83.5 -20.5s-29.5 -32.834 -29.5 -57.501c0 -20.667 6.16699 -37 18.5 -49
s32.166 -21.333 59.499 -28l85 -21c46.667 -10.667 81.334 -27.167 104.001 -49.5s34 -51.5 34 -87.5c0 -43.333 -17.667 -78 -53 -104s-83.333 -39 -144 -39c-84.667 0 -151.667 21.667 -201 65zM184.002 567.999h-75l119 204h57l119 -204h-75l-72 144z" />
    <glyph glyph-name="Scedilla" unicode="&#x15e;" horiz-adv-x="623" 
d="M511.5 51c-43.667 -36.667 -103.17 -56.334 -178.503 -59.001l-4 -35c10.667 1.33301 18.667 2 24 2c21.333 0 39.5 -6 54.5 -18s22.5 -29.333 22.5 -52c0 -24.667 -10.333 -44.834 -31 -60.501s-49.334 -23.5 -86.001 -23.5c-14 0 -29.333 1.66699 -46 5s-31 8 -43 14
l13 44c24 -9.33301 49.333 -14 76 -14c18 0 31.833 3 41.5 9s14.5 14.667 14.5 26c0 8.66699 -3 15.334 -9 20.001s-14.667 7 -26 7c-15.333 0 -30.666 -3 -45.999 -9l-20 16l8 70c-94 6 -170 35.667 -228 89l31 63c35.333 -30 71.333 -51.333 108 -64
s79.334 -19 128.001 -19c57.333 0 101.5 11.167 132.5 33.5s46.5 53.833 46.5 94.5c0 24 -7.5 43.5 -22.5 58.5s-34.667 26.833 -59 35.5s-56.833 17.667 -97.5 27c-54.667 12 -99.667 25 -135 39s-64 34.167 -86 60.5s-33 60.833 -33 103.5c0 40.667 10.667 76.5 32 107.5
s51.5 55.167 90.5 72.5s84.5 26 136.5 26c49.333 0 95.333 -7.66699 138 -23s78.667 -37.666 108 -66.999l-32 -63c-33.333 28.667 -67.166 49.667 -101.499 63s-71.833 20 -112.5 20c-55.333 0 -98.666 -11.833 -129.999 -35.5s-47 -56.167 -47 -97.5
c0 -36 13.667 -63 41 -81s69.333 -33.667 126 -47c61.333 -14.667 109.5 -28.167 144.5 -40.5s64.167 -31 87.5 -56s35 -58.167 35 -99.5c0 -58 -21.833 -105.333 -65.5 -142z" />
    <glyph glyph-name="scedilla" unicode="&#x15f;" horiz-adv-x="496" 
d="M397 35.5c-32 -25.667 -75.9971 -39.834 -131.997 -42.501l-4 -36c10.667 1.33301 18.667 2 24 2c21.333 0 39.5 -6 54.5 -18s22.5 -29.333 22.5 -52c0 -24.667 -10.333 -44.834 -31 -60.501s-49.334 -23.5 -86.001 -23.5c-14 0 -29.333 1.66699 -46 5s-31 8 -43 14
l13 44c24 -9.33301 49.333 -14 76 -14c18 0 31.833 3 41.5 9s14.5 14.667 14.5 26c0 8.66699 -3 15.334 -9 20.001s-14.667 7 -26 7c-15.333 0 -30.666 -3 -45.999 -9l-20 16l8 72c-66.667 6 -120.334 27 -161.001 63l27 60c27.333 -21.333 55 -36.666 83 -45.999
s59.333 -14 94 -14c38 0 66.833 6.5 86.5 19.5s29.5 31.833 29.5 56.5c0 20 -6.66699 36 -20 48s-35.333 21.333 -66 28l-85 20c-42 9.33301 -74.5 26 -97.5 50s-34.5 52.667 -34.5 86c0 44 17.667 79.833 53 107.5s82 41.5 140 41.5c35.333 0 68.666 -5.66699 99.999 -17
s57.666 -27.666 78.999 -48.999l-27 -59c-47.333 39.333 -98 59 -152 59c-36 0 -63.833 -6.83301 -83.5 -20.5s-29.5 -32.834 -29.5 -57.501c0 -20.667 6.16699 -37 18.5 -49s32.166 -21.333 59.499 -28l85 -21c46.667 -10.667 81.334 -27.167 104.001 -49.5
s34 -51.5 34 -87.5c0 -41.333 -16 -74.833 -48 -100.5z" />
    <glyph glyph-name="Scaron" unicode="&#x160;" horiz-adv-x="623" 
d="M48 82l30.9971 62.999c35.333 -30 71.333 -51.333 108 -64s79.334 -19 128.001 -19c57.333 0 101.5 11.167 132.5 33.5s46.5 53.833 46.5 94.5c0 24 -7.5 43.5 -22.5 58.5s-34.667 26.833 -59 35.5s-56.833 17.667 -97.5 27c-54.667 12 -99.667 25 -135 39
s-64 34.167 -86 60.5s-33 60.833 -33 103.5c0 40.667 10.667 76.5 32 107.5s51.5 55.167 90.5 72.5s84.5 26 136.5 26c49.333 0 95.333 -7.66699 138 -23s78.667 -37.666 108 -66.999l-32 -63c-33.333 28.667 -67.166 49.667 -101.499 63s-71.833 20 -112.5 20
c-55.333 0 -98.666 -11.833 -129.999 -35.5s-47 -56.167 -47 -97.5c0 -36 13.667 -63 41 -81s69.333 -33.667 126 -47c61.333 -14.667 109.5 -28.167 144.5 -40.5s64.167 -31 87.5 -56s35 -58.167 35 -99.5c0 -40 -10.667 -75.167 -32 -105.5s-51.833 -53.833 -91.5 -70.5
s-86.167 -25 -139.5 -25c-111.333 0 -200 30 -266 90zM384.997 925.999h74l-120 -153h-55l-120 153h74l74 -105z" />
    <glyph glyph-name="scaron" unicode="&#x161;" horiz-adv-x="496" 
d="M47 58l27.002 59.999c27.333 -21.333 55 -36.666 83 -45.999s59.333 -14 94 -14c38 0 66.833 6.5 86.5 19.5s29.5 31.833 29.5 56.5c0 20 -6.66699 36 -20 48s-35.333 21.333 -66 28l-85 20c-42 9.33301 -74.5 26 -97.5 50s-34.5 52.667 -34.5 86
c0 44 17.667 79.833 53 107.5s82 41.5 140 41.5c35.333 0 68.666 -5.66699 99.999 -17s57.666 -27.666 78.999 -48.999l-27 -59c-47.333 39.333 -98 59 -152 59c-36 0 -63.833 -6.83301 -83.5 -20.5s-29.5 -32.834 -29.5 -57.501c0 -20.667 6.16699 -37 18.5 -49
s32.166 -21.333 59.499 -28l85 -21c46.667 -10.667 81.334 -27.167 104.001 -49.5s34 -51.5 34 -87.5c0 -43.333 -17.667 -78 -53 -104s-83.333 -39 -144 -39c-84.667 0 -151.667 21.667 -201 65zM329.002 771.999h75l-119 -204h-57l-119 204h75l73 -145z" />
    <glyph glyph-name="uni0162" unicode="&#x162;" horiz-adv-x="603" 
d="M321 0l-5 -43c10.667 1.33301 18.667 2 24 2c21.333 0 39.5 -6 54.5 -18s22.5 -29.333 22.5 -52c0 -24.667 -10.333 -44.834 -31 -60.501s-49.334 -23.5 -86.001 -23.5c-14 0 -29.333 1.66699 -46 5s-31 8 -43 14l13 44c24 -9.33301 49.333 -14 76 -14
c18 0 31.833 3 41.5 9s14.5 14.667 14.5 26c0 8.66699 -3 15.334 -9 20.001s-14.667 7 -26 7c-15.333 0 -30.666 -3 -45.999 -9l-20 16l9 77h-4v642h-248v70h579v-70h-248v-642h-22z" />
    <glyph glyph-name="uni0163" unicode="&#x163;" horiz-adv-x="350" 
d="M317.5 -59c15 -12 22.5 -29.334 22.5 -52.001c0 -24.667 -10.333 -44.834 -31 -60.501s-49.334 -23.5 -86.001 -23.5c-14 0 -29.333 1.66699 -46 5s-31 8 -43 14l13 44c24 -9.33301 49.333 -14 76 -14c18 0 31.833 3 41.5 9s14.5 14.667 14.5 26
c0 8.66699 -3 15.334 -9 20.001s-14.667 7 -26 7c-15.333 0 -30.666 -3 -45.999 -9l-20 16l9 83c-26.667 10.667 -47 28.334 -61 53.001s-21 56 -21 94v286h-98v64h98v129l81 29v-158h144v-64h-144v-275c0 -37.333 7.66699 -63.5 23 -78.5s37 -22.5 65 -22.5
c18.667 0 36.667 3 54 9v-69c-20.667 -6.66699 -44 -10 -70 -10h-15l-4 -36c10.667 1.33301 18.667 2 24 2c21.333 0 39.5 -6 54.5 -18z" />
    <glyph glyph-name="Tcaron" unicode="&#x164;" horiz-adv-x="603" 
d="M260 0v642h-248v70h579v-70h-248v-642h-83zM375 926h74l-120 -153h-55l-120 153h74l74 -105z" />
    <glyph glyph-name="tcaron" unicode="&#x165;" horiz-adv-x="350" 
d="M311 714l-28 -173h-45v173h73zM186 439v-275c0 -37.333 7.66699 -63.5 23 -78.5s37 -22.5 65 -22.5c18.667 0 36.667 3 54 9v-69c-20.667 -6.66699 -44 -10 -70 -10c-48 0 -85.5 13.5 -112.5 40.5s-40.5 66.833 -40.5 119.5v286h-98v64h98v129l81 29v-158h144v-64h-144z
" />
    <glyph glyph-name="Tbar" unicode="&#x166;" horiz-adv-x="603" 
d="M591 642h-248v-248h144v-66h-144v-328h-83v328h-144v66h144v248h-248v70h579v-70z" />
    <glyph glyph-name="tbar" unicode="&#x167;" horiz-adv-x="360" 
d="M191 439v-119h123v-61h-123v-95c0 -37.333 7.66699 -63.5 23 -78.5s37 -22.5 65 -22.5c18.667 0 36.667 3 54 9v-69c-20.667 -6.66699 -44 -10 -70 -10c-48 0 -85.333 13.5 -112 40.5s-40 66.833 -40 119.5v106h-78v61h78v119h-99v64h99v129l80 29v-158h144v-64h-144z
" />
    <glyph glyph-name="Utilde" unicode="&#x168;" horiz-adv-x="731" 
d="M154.5 64.5c-47.667 48.333 -71.5 119.833 -71.5 214.5v433h81v-440c0 -69.333 17 -121.666 51 -156.999s84.333 -53 151 -53c66 0 115.833 17.667 149.5 53s50.5 87.666 50.5 156.999v440h82v-433c0 -94 -24 -165.333 -72 -214s-118 -73 -210 -73
c-93.333 0 -163.833 24.167 -211.5 72.5zM227.5 879.5c16.333 20.333 38.166 30.5 65.499 30.5c14 0 27.333 -2.83301 40 -8.5s27.667 -13.834 45 -24.501c14 -8.66699 25.167 -15 33.5 -19s16.5 -6 24.5 -6c14.667 0 26.167 5.33301 34.5 16s12.5 23.667 12.5 39h45
c0 -36.667 -8.16699 -65.167 -24.5 -85.5s-38.166 -30.5 -65.499 -30.5c-14 0 -27.333 2.83301 -40 8.5s-27.667 13.834 -45 24.501c-14 8.66699 -25.167 15 -33.5 19s-16.5 6 -24.5 6c-14.667 0 -26.167 -5.33301 -34.5 -16s-12.5 -23.667 -12.5 -39h-45
c0 36.667 8.16699 65.167 24.5 85.5z" />
    <glyph glyph-name="utilde" unicode="&#x169;" horiz-adv-x="577" 
d="M499 503v-503h-79v87c-16 -30.667 -38.333 -54 -67 -70s-61 -24 -97 -24c-59.333 0 -104.333 16.667 -135 50s-46 82.666 -46 147.999v312h81v-310c0 -45.333 9.33301 -78.666 28 -99.999s47 -32 85 -32c44.667 0 80.667 14.5 108 43.5s41 67.167 41 114.5v284h81z
M150.5 700c16.333 20 38.166 30 65.499 30c14 0 27.333 -2.83301 40 -8.5s27.667 -13.834 45 -24.501c14 -8.66699 25.167 -15 33.5 -19s16.5 -6 24.5 -6c14.667 0 26.167 5.33301 34.5 16s12.5 23.667 12.5 39h45c0 -36.667 -8.16699 -65 -24.5 -85
s-38.166 -30 -65.499 -30c-14 0 -27.333 2.83301 -40 8.5s-27.667 13.834 -45 24.501c-14 8.66699 -25.167 15 -33.5 19s-16.5 6 -24.5 6c-14.667 0 -26.167 -5.33301 -34.5 -16s-12.5 -23.667 -12.5 -39h-45c0 36.667 8.16699 65 24.5 85z" />
    <glyph glyph-name="Umacron" unicode="&#x16a;" horiz-adv-x="731" 
d="M154.5 64.5c-47.667 48.333 -71.5 119.833 -71.5 214.5v433h81v-440c0 -69.333 17 -121.666 51 -156.999s84.333 -53 151 -53c66 0 115.833 17.667 149.5 53s50.5 87.666 50.5 156.999v440h82v-433c0 -94 -24 -165.333 -72 -214s-118 -73 -210 -73
c-93.333 0 -163.833 24.167 -211.5 72.5zM214 819v62h303v-62h-303z" />
    <glyph glyph-name="umacron" unicode="&#x16b;" horiz-adv-x="577" 
d="M499 503v-503h-79v87c-16 -30.667 -38.333 -54 -67 -70s-61 -24 -97 -24c-59.333 0 -104.333 16.667 -135 50s-46 82.666 -46 147.999v312h81v-310c0 -45.333 9.33301 -78.666 28 -99.999s47 -32 85 -32c44.667 0 80.667 14.5 108 43.5s41 67.167 41 114.5v284h81z
M137 639v62h303v-62h-303z" />
    <glyph glyph-name="Ubreve" unicode="&#x16c;" horiz-adv-x="731" 
d="M154.5 64.5c-47.667 48.333 -71.5 119.833 -71.5 214.5v433h81v-440c0 -69.333 17 -121.666 51 -156.999s84.333 -53 151 -53c66 0 115.833 17.667 149.5 53s50.5 87.666 50.5 156.999v440h82v-433c0 -94 -24 -165.333 -72 -214s-118 -73 -210 -73
c-93.333 0 -163.833 24.167 -211.5 72.5zM266 810.5c-28.667 17 -50.333 44.167 -65 81.5l51 22c15.333 -26.667 32 -45.167 50 -55.5s39.333 -15.5 64 -15.5s45.834 5.16699 63.501 15.5s34.167 28.833 49.5 55.5l51 -22c-14.667 -37.333 -36.334 -64.5 -65.001 -81.5
s-61.667 -25.5 -99 -25.5c-38 0 -71.333 8.5 -100 25.5z" />
    <glyph glyph-name="ubreve" unicode="&#x16d;" horiz-adv-x="577" 
d="M499 503v-503h-79v87c-16 -30.667 -38.333 -54 -67 -70s-61 -24 -97 -24c-59.333 0 -104.333 16.667 -135 50s-46 82.666 -46 147.999v312h81v-310c0 -45.333 9.33301 -78.666 28 -99.999s47 -32 85 -32c44.667 0 80.667 14.5 108 43.5s41 67.167 41 114.5v284h81z
M188 629.5c-30 21 -52 53.167 -66 96.5l51 22c14.667 -32 31.667 -55 51 -69s41 -21 65 -21c48.667 0 87 30 115 90l51 -22c-14 -43.333 -35.833 -75.5 -65.5 -96.5s-63.167 -31.5 -100.5 -31.5s-71 10.5 -101 31.5z" />
    <glyph glyph-name="Uring" unicode="&#x16e;" horiz-adv-x="731" 
d="M154.5 64.5c-47.667 48.333 -71.5 119.833 -71.5 214.5v433h81v-440c0 -69.333 17 -121.666 51 -156.999s84.333 -53 151 -53c66 0 115.833 17.667 149.5 53s50.5 87.666 50.5 156.999v440h82v-433c0 -94 -24 -165.333 -72 -214s-118 -73 -210 -73
c-93.333 0 -163.833 24.167 -211.5 72.5zM293.5 796.5c-19.667 19 -29.5 42.833 -29.5 71.5c0 28 9.83301 51.667 29.5 71s43.834 29 72.501 29c28 0 51.833 -9.66699 71.5 -29s29.5 -43 29.5 -71s-9.83301 -51.667 -29.5 -71s-43.5 -29 -71.5 -29
c-28.667 0 -52.834 9.5 -72.501 28.5zM400.5 831.5c9 9.66699 13.5 21.834 13.5 36.501c0 14 -4.5 25.833 -13.5 35.5s-20.5 14.5 -34.5 14.5s-25.667 -4.83301 -35 -14.5s-14 -21.5 -14 -35.5c0 -14.667 4.5 -26.834 13.5 -36.501s20.833 -14.5 35.5 -14.5
c14 0 25.5 4.83301 34.5 14.5z" />
    <glyph glyph-name="uring" unicode="&#x16f;" horiz-adv-x="577" 
d="M499 503v-503h-79v87c-16 -30.667 -38.333 -54 -67 -70s-61 -24 -97 -24c-59.333 0 -104.333 16.667 -135 50s-46 82.666 -46 147.999v312h81v-310c0 -45.333 9.33301 -78.666 28 -99.999s47 -32 85 -32c44.667 0 80.667 14.5 108 43.5s41 67.167 41 114.5v284h81z
M216.5 598.5c-19.667 19 -29.5 42.833 -29.5 71.5c0 28 9.83301 51.667 29.5 71s43.834 29 72.501 29c28 0 51.833 -9.66699 71.5 -29s29.5 -43 29.5 -71s-9.83301 -51.667 -29.5 -71s-43.5 -29 -71.5 -29c-28.667 0 -52.834 9.5 -72.501 28.5zM323.5 633.5
c9 9.66699 13.5 21.834 13.5 36.501c0 14 -4.5 25.833 -13.5 35.5s-20.5 14.5 -34.5 14.5s-25.667 -4.83301 -35 -14.5s-14 -21.5 -14 -35.5c0 -14.667 4.5 -26.834 13.5 -36.501s20.833 -14.5 35.5 -14.5c14 0 25.5 4.83301 34.5 14.5z" />
    <glyph glyph-name="Uhungarumlaut" unicode="&#x170;" horiz-adv-x="731" 
d="M154.5 64.5c-47.667 48.333 -71.5 119.833 -71.5 214.5v433h81v-440c0 -69.333 17 -121.666 51 -156.999s84.333 -53 151 -53c66 0 115.833 17.667 149.5 53s50.5 87.666 50.5 156.999v440h82v-433c0 -94 -24 -165.333 -72 -214s-118 -73 -210 -73
c-93.333 0 -163.833 24.167 -211.5 72.5zM283 773l71 153h72l-99 -153h-44zM404 773l72 153h70l-98 -153h-44z" />
    <glyph glyph-name="uhungarumlaut" unicode="&#x171;" horiz-adv-x="577" 
d="M499 503v-503h-79v87c-16 -30.667 -38.333 -54 -67 -70s-61 -24 -97 -24c-59.333 0 -104.333 16.667 -135 50s-46 82.666 -46 147.999v312h81v-310c0 -45.333 9.33301 -78.666 28 -99.999s47 -32 85 -32c44.667 0 80.667 14.5 108 43.5s41 67.167 41 114.5v284h81z
M248 568h-41l46 204h75zM370 568h-41l45 204h76z" />
    <glyph glyph-name="Uogonek" unicode="&#x172;" horiz-adv-x="731" 
d="M648 712v-432.999c0 -73.333 -14.5 -132.833 -43.5 -178.5s-72.167 -77.167 -129.5 -94.5c-28 -8.66699 -48.333 -19.834 -61 -33.501s-19 -30.5 -19 -50.5s5.66699 -35.5 17 -46.5s27.333 -16.5 48 -16.5c18 0 37.667 5.66699 59 17l16 -48
c-23.333 -15.333 -52 -23 -86 -23c-34.667 0 -63 10 -85 30s-33 45.333 -33 76c0 34 12.667 61 38 81h-3c-93.333 0 -163.833 24.167 -211.5 72.5s-71.5 119.833 -71.5 214.5v433h81v-440c0 -69.333 17 -121.666 51 -156.999s84.333 -53 151 -53
c66 0 115.833 17.667 149.5 53s50.5 87.666 50.5 156.999v440h82z" />
    <glyph glyph-name="uogonek" unicode="&#x173;" horiz-adv-x="577" 
d="M545 -176c-24.667 -15.333 -54.001 -22.999 -88.001 -22.999c-35.333 0 -64.166 10 -86.499 30s-33.5 46.333 -33.5 79c0 26 7.33301 49 22 69s35 35.667 61 47v61c-16 -30.667 -38.333 -54 -67 -70s-61 -24 -97 -24c-59.333 0 -104.333 16.667 -135 50
s-46 82.666 -46 147.999v312h81v-310c0 -45.333 9.33301 -78.666 28 -99.999s47 -32 85 -32c44.667 0 80.667 14.5 108 43.5s41 67.167 41 114.5v284h81v-503h-6c-27.333 0 -49.5 -7.5 -66.5 -22.5s-25.5 -34.167 -25.5 -57.5c0 -20.667 6 -36.834 18 -48.501
s28.667 -17.5 50 -17.5c17.333 0 37 6.33301 59 19z" />
    <glyph glyph-name="Wcircumflex" unicode="&#x174;" horiz-adv-x="1112" 
d="M997 712h81l-249 -712h-70l-203 583l-204 -583h-69l-250 712h84l202 -595l207 595l63 -1l204 -596zM481 773h-74l120 153h55l120 -153h-74l-73 104z" />
    <glyph glyph-name="wcircumflex" unicode="&#x175;" horiz-adv-x="869" 
d="M762 503h80l-186 -503h-78l-144 393l-143 -393h-78l-186 503h85l142 -406l147 406h71l145 -407zM362 568h-75l119 204h57l119 -204h-75l-72 144z" />
    <glyph glyph-name="Ycircumflex" unicode="&#x176;" horiz-adv-x="607" 
d="M624 712l-280 -424v-288h-82v289l-280 423h96l226 -350l226 350h94zM229 773h-74l120 153h55l120 -153h-74l-73 104z" />
    <glyph glyph-name="ycircumflex" unicode="&#x177;" horiz-adv-x="531" 
d="M520 503l-234.999 -549.002c-24.667 -57.333 -55.667 -99.333 -93 -126s-83.333 -45 -138 -55l-17 63c47.333 10.667 83.166 24.834 107.499 42.501s44.5 44.834 60.5 81.501l20 45l-213 498h85l170 -415l172 415h81zM193.001 567.998h-75l119 204h57l119 -204h-75
l-72 144z" />
    <glyph glyph-name="Ydieresis" unicode="&#x178;" horiz-adv-x="607" 
d="M624 712l-280 -424v-288h-82v289l-280 423h96l226 -350l226 350h94zM171 893h90v-86h-90v86zM344 893h90v-86h-90v86z" />
    <glyph glyph-name="Zacute" unicode="&#x179;" horiz-adv-x="596" 
d="M140 69h418v-69h-513v61l408 582h-408v69h503v-60zM325 773h-57l102 153h89z" />
    <glyph glyph-name="zacute" unicode="&#x17a;" horiz-adv-x="518" 
d="M150 64h325v-64h-425v56l317 383h-306v64h403v-59zM292 568h-57l100 204h94z" />
    <glyph glyph-name="Zdotaccent" unicode="&#x17b;" horiz-adv-x="596" 
d="M140 69h418v-69h-513v61l408 582h-408v69h503v-60zM247 896h99v-92h-99v92z" />
    <glyph glyph-name="zdotaccent" unicode="&#x17c;" horiz-adv-x="518" 
d="M150 64h325v-64h-425v56l317 383h-306v64h403v-59zM214 716h99v-92h-99v92z" />
    <glyph glyph-name="Zcaron" unicode="&#x17d;" horiz-adv-x="596" 
d="M140 69h418v-69h-513v61l408 582h-408v69h503v-60zM370 926h74l-120 -153h-55l-120 153h74l74 -105z" />
    <glyph glyph-name="zcaron" unicode="&#x17e;" horiz-adv-x="518" 
d="M150 64h325v-64h-425v56l317 383h-306v64h403v-59zM336 772h75l-119 -204h-57l-119 204h75l73 -145z" />
    <glyph glyph-name="uni018F" unicode="&#x18f;" horiz-adv-x="750" 
d="M530.5 676c50.333 -29.333 89.168 -71.168 116.501 -125.501s41 -118.833 41 -193.5c0 -74 -12.667 -138.5 -38 -193.5s-61.333 -97.333 -108 -127s-101.334 -44.5 -164.001 -44.5c-64.667 0 -120.667 14.5 -168 43.5s-83.833 70.667 -109.5 125
s-38.5 118.833 -38.5 193.5v42h541c-6 81.333 -30.833 144 -74.5 188s-102.834 66 -177.501 66c-85.333 0 -159.666 -27.667 -222.999 -83l-32 63c30.667 28.667 68.5 50.834 113.5 66.501s92.5 23.5 142.5 23.5c68.667 0 128.167 -14.667 178.5 -44zM537.502 130.498
c39 45.667 60.833 110.833 65.5 195.5h-457c4 -84 26 -149 66 -195s94.667 -69 164 -69c68.667 0 122.5 22.833 161.5 68.5z" />
    <glyph glyph-name="florin" unicode="&#x192;" 
d="M438.5 626c-17.667 -16 -30.168 -42.001 -37.501 -78.001l-12 -55h125v-59h-137l-98 -456c-12 -55.333 -34.167 -96.666 -66.5 -123.999s-73.166 -41 -122.499 -41h-52v67h51c30 0 54 8 72 24s30.667 42 38 78l96 452h-123v59h135l13 59c12 55.333 34 96.5 66 123.5
s73 40.5 123 40.5h52v-66h-51c-30 0 -53.833 -8 -71.5 -24z" />
    <glyph glyph-name="Ohorn" unicode="&#x1a0;" horiz-adv-x="772" 
d="M674.5 707.5c-23.667 -26.333 -56.5 -41.501 -98.5 -45.501c43.333 -30 76.5 -71 99.5 -123s34.5 -112.667 34.5 -182c0 -74.667 -13.167 -139.334 -39.5 -194.001s-63.833 -96.834 -112.5 -126.501s-106 -44.5 -172 -44.5s-123.333 14.833 -172 44.5
s-86.167 71.834 -112.5 126.501s-39.5 119 -39.5 193c0 74.667 13 139.334 39 194.001s63.667 96.667 113 126s107.666 44 174.999 44c17.333 0 42 -1.33301 74 -4c29.333 -2.66699 50.333 -4 63 -4c40.667 0.666992 69.334 9.33398 86.001 26.001s25 45 25 85v15h73v-27
c0 -42.667 -11.833 -77.167 -35.5 -103.5zM562.5 573.999c-41.667 50.667 -100.5 76 -176.5 76s-135 -25.5 -177 -76.5s-63 -123.167 -63 -216.5c0 -94 21 -166.667 63 -218s101 -77 177 -77c75.333 0 134 25.667 176 77s63 124 63 218s-20.833 166.333 -62.5 217z" />
    <glyph glyph-name="ohorn" unicode="&#x1a1;" horiz-adv-x="572" 
d="M501.5 519c-16.333 -24.667 -39.499 -42.332 -69.499 -52.999c29.333 -22 52 -51.167 68 -87.5s24 -77.833 24 -124.5c0 -52.667 -9.83301 -98.667 -29.5 -138s-47.5 -69.666 -83.5 -90.999s-77.667 -32 -125 -32s-89 10.667 -125 32s-63.833 51.666 -83.5 90.999
s-29.5 85.333 -29.5 138s9.83301 98.667 29.5 138s47.5 69.666 83.5 90.999s77.667 32 125 32c11.333 0 26.333 -1.33301 45 -4c11.333 -2 20.666 -3 27.999 -3c32.667 0 56.667 8.66699 72 26s23 46.333 23 87v15h72v-26c0 -36 -8.16699 -66.333 -24.5 -91z
M401.001 109.502c26.667 33 39.999 81.167 39.999 144.5c0 61.333 -13.667 108.833 -41 142.5s-65.333 50.5 -114 50.5c-49.333 0 -87.666 -16.833 -114.999 -50.5s-41 -81.167 -41 -142.5c0 -63.333 13.5 -111.5 40.5 -144.5s65.5 -49.5 115.5 -49.5s88.333 16.5 115 49.5z
" />
    <glyph glyph-name="Uhorn" unicode="&#x1af;" horiz-adv-x="731" 
d="M766 838v-27.002c0 -40 -10.333 -72.667 -31 -98s-49.667 -41.666 -87 -48.999v-385c0 -94 -24 -165.333 -72 -214s-118 -73 -210 -73c-93.333 0 -163.833 24.167 -211.5 72.5s-71.5 119.833 -71.5 214.5v433h81v-440c0 -69.333 17 -121.666 51 -156.999
s84.333 -53 151 -53c66 0 115.833 17.667 149.5 53s50.5 87.666 50.5 156.999v440h24c37.333 0.666992 64 9.33398 80 26.001s24 45 24 85v15h72z" />
    <glyph glyph-name="uhorn" unicode="&#x1b0;" horiz-adv-x="591" 
d="M620 636v-26c0 -42 -10.5 -76.333 -31.5 -103s-50.833 -43 -89.5 -49v-458h-79v87c-16 -30.667 -38.333 -54 -67 -70s-61 -24 -97 -24c-59.333 0 -104.333 16.667 -135 50s-46 82.666 -46 147.999v312h81v-310c0 -45.333 9.33301 -78.666 28 -99.999s47 -32 85 -32
c44.667 0 80.667 14.5 108 43.5s41 67.167 41 114.5v284h23c38 0 65.333 9.16699 82 27.5s25 48.5 25 90.5v15h72z" />
    <glyph glyph-name="uni01C4" unicode="&#x1c4;" horiz-adv-x="1327" 
d="M88 712h239c114 0 202.167 -30.833 264.5 -92.5s93.5 -149.167 93.5 -262.5c0 -114 -31.167 -202 -93.5 -264s-150.5 -93 -264.5 -93h-239v712zM322 70c92 0 161.167 24 207.5 72s69.5 119.667 69.5 215c0 190 -92.333 285 -277 285h-152v-572h152zM871 69h418v-69h-513
v61l408 582h-408v69h503v-60zM1101 926h74l-120 -153h-55l-120 153h74l74 -105z" />
    <glyph glyph-name="uni01C5" unicode="&#x1c5;" horiz-adv-x="1264" 
d="M88 712h239c114 0 202.167 -30.833 264.5 -92.5s93.5 -149.167 93.5 -262.5c0 -114 -31.167 -202 -93.5 -264s-150.5 -93 -264.5 -93h-239v712zM322 70c92 0 161.167 24 207.5 72s69.5 119.667 69.5 215c0 190 -92.333 285 -277 285h-152v-572h152zM896 64h325v-64h-425
v56l317 383h-306v64h403v-59zM1082 772h75l-119 -204h-57l-119 204h75l73 -145z" />
    <glyph glyph-name="uni01C6" unicode="&#x1c6;" horiz-adv-x="1118" 
d="M521 736l0.00292969 -736h-80v91c-14.667 -31.333 -36.834 -55.5 -66.501 -72.5s-64.167 -25.5 -103.5 -25.5c-44 0 -82.833 11 -116.5 33s-59.834 52.833 -78.501 92.5s-28 85.5 -28 137.5s9.16699 97.5 27.5 136.5s44.5 69.167 78.5 90.5s73 32 117 32
c39.333 0 73.666 -8.5 102.999 -25.5s51.333 -40.833 66 -71.5v318h81zM401.003 110.5c26.667 33.667 40 81.5 40 143.5c0 61.333 -13.333 108.833 -40 142.5s-64.667 50.5 -114 50.5s-87.833 -16.667 -115.5 -50s-41.5 -80.333 -41.5 -141
c0 -62 13.833 -110.167 41.5 -144.5s66.167 -51.5 115.5 -51.5s87.333 16.833 114 50.5zM750.003 64h325v-64h-425v56l317 383h-306v64h403v-59zM936.003 772h75l-119 -204h-57l-119 204h75l73 -145z" />
    <glyph glyph-name="uni01C7" unicode="&#x1c7;" horiz-adv-x="798" 
d="M88 0v712h82v-642h327v-70h-409zM463 -107c30 -5.33301 54 -8.00098 72 -8.00098c34 0 57.833 9.33301 71.5 28s20.5 51.334 20.5 98.001v701h83v-702c0 -69.333 -12.5 -119.333 -37.5 -150s-66.5 -46 -124.5 -46c-22.667 0 -51 2.66699 -85 8v71z" />
    <glyph glyph-name="uni01C8" unicode="&#x1c8;" horiz-adv-x="783" 
d="M88 0v712h82v-642h357v-70h-439zM539 -150c56 0 84 33.333 84 100v553h81v-563c0 -52.667 -13.167 -92.5 -39.5 -119.5s-62.5 -40.5 -108.5 -40.5c-22 0 -44 3 -66 9v69c18 -5.33301 34.333 -8 49 -8zM614 716h99v-92h-99v92z" />
    <glyph glyph-name="uni01C9" unicode="&#x1c9;" horiz-adv-x="476" 
d="M78 0v736h81v-736h-81zM232 -150c56 0 84 33.333 84 100v553h81v-563c0 -52.667 -13.167 -92.5 -39.5 -119.5s-62.5 -40.5 -108.5 -40.5c-22 0 -44 3 -66 9v69c18 -5.33301 34.333 -8 49 -8zM307 716h99v-92h-99v92z" />
    <glyph glyph-name="uni01CA" unicode="&#x1ca;" horiz-adv-x="1075" 
d="M581 712h78v-712h-64l-430 573v-573h-77v712h63l430 -573v573zM741 -107c30 -5.33301 54 -8 72 -8c34 0 57.833 9.5 71.5 28.5s20.5 51.5 20.5 97.5v701h82v-702c0 -69.333 -12.5 -119.333 -37.5 -150s-66.167 -46 -123.5 -46c-22.667 0 -51 2.66699 -85 8v71z" />
    <glyph glyph-name="uni01CB" unicode="&#x1cb;" horiz-adv-x="984" 
d="M581 712h78v-712h-64l-430 573v-573h-77v712h63l430 -573v573zM740 -150c56 0 84 33.333 84 100v553h81v-563c0 -52.667 -13.167 -92.5 -39.5 -119.5s-62.5 -40.5 -108.5 -40.5c-22 0 -44 3 -66 9v69c18 -5.33301 34.333 -8 49 -8zM815 716h99v-92h-99v92z" />
    <glyph glyph-name="uni01CC" unicode="&#x1cc;" horiz-adv-x="823" 
d="M510 316v-316.001h-81v312c0 46.667 -9.33301 80.834 -28 102.501s-48 32.5 -88 32.5c-46.667 0 -84 -14.333 -112 -43s-42 -67.334 -42 -116.001v-288h-81v362c0 52 -2.66699 99 -8 141h77l8 -90c15.333 32.667 38.333 57.834 69 75.501s65.667 26.5 105 26.5
c120.667 0 181 -66.333 181 -199zM579 -150.001c56 0 84 33.333 84 100v553h81v-563c0 -52.667 -13.167 -92.5 -39.5 -119.5s-62.5 -40.5 -108.5 -40.5c-22 0 -44 3 -66 9v69c18 -5.33301 34.333 -8 49 -8zM654 715.999h99v-92h-99v92z" />
    <glyph glyph-name="uni01CE" unicode="&#x1ce;" 
d="M521 503l0.00292969 -503.001h-80v91c-14.667 -31.333 -36.834 -55.5 -66.501 -72.5s-64.167 -25.5 -103.5 -25.5c-44.667 0 -83.834 10.667 -117.501 32s-59.667 51.5 -78 90.5s-27.5 84.5 -27.5 136.5s9.33301 97.833 28 137.5s44.834 70.5 78.501 92.5
s72.5 33 116.5 33c39.333 0 73.666 -8.66699 102.999 -26s51.666 -41.666 66.999 -72.999v87h80zM401.003 110.499c26.667 33.667 40 81.498 40 143.498s-13.333 109.667 -40 143s-64.667 50 -114 50s-87.833 -17.167 -115.5 -51.5s-41.5 -82.166 -41.5 -143.499
s13.667 -108.666 41 -141.999s66 -50 116 -50c49.333 0 87.333 16.833 114 50.5zM373.003 771.997h75l-119 -204h-57l-119 204h75l73 -145z" />
    <glyph glyph-name="Gcaron" unicode="&#x1e6;" horiz-adv-x="731" 
d="M651 371v-329.999c-28 -14.667 -64.667 -26.5 -110 -35.5s-91.333 -13.5 -138 -13.5c-70.667 0 -131.667 14.5 -183 43.5s-90.5 70.833 -117.5 125.5s-40.5 120 -40.5 196c0 75.333 13.5 140.166 40.5 194.499s65.667 96 116 125s109.833 43.5 178.5 43.5
c50 0 95.833 -7.5 137.5 -22.5s77.5 -37.5 107.5 -67.5l-32 -63c-34.667 29.333 -68.5 50.5 -101.5 63.5s-70.167 19.5 -111.5 19.5c-80.667 0 -142.5 -25.167 -185.5 -75.5s-64.5 -122.833 -64.5 -217.5c0 -96.667 22 -170.167 66 -220.5s108 -75.5 192 -75.5
c59.333 0 116.333 9.33301 171 28v217h-177v65h252zM469 926.001h74l-120 -153h-55l-120 153h74l74 -105z" />
    <glyph glyph-name="gcaron" unicode="&#x1e7;" horiz-adv-x="604" 
d="M526 503v-499.002c0 -74.667 -19.167 -131.167 -57.5 -169.5s-94.833 -57.5 -169.5 -57.5c-76.667 0 -142.667 17.333 -198 52l14 66c32 -18 62.167 -31 90.5 -39s59.5 -12 93.5 -12c48.667 0 85.334 12.833 110.001 38.5s37 63.834 37 114.501v119
c-15.333 -32 -37.833 -56.833 -67.5 -74.5s-64.834 -26.5 -105.501 -26.5c-44 0 -83.167 10.333 -117.5 31s-60.833 50 -79.5 88s-28 81.667 -28 131s9.33301 93 28 131s45.167 67.333 79.5 88s73.5 31 117.5 31c40 0 74.833 -8.66699 104.5 -26
s52.167 -41.666 67.5 -72.999v87h81zM403.5 131.498c27.667 32.333 41.5 76.833 41.5 133.5s-13.833 101.167 -41.5 133.5s-65.834 48.5 -114.501 48.5c-49.333 0 -88.166 -16.167 -116.499 -48.5s-42.5 -76.833 -42.5 -133.5s14.167 -101.167 42.5 -133.5
s67.166 -48.5 116.499 -48.5c48.667 0 86.834 16.167 114.501 48.5zM376 771.998h75l-119 -204h-57l-119 204h75l73 -145z" />
    <glyph glyph-name="uni01EA" unicode="&#x1ea;" horiz-adv-x="772" 
d="M408 -78c0 -20 5.83496 -35.5 17.502 -46.5s28.167 -16.5 49.5 -16.5c17.333 0 36.666 5.66699 57.999 17l16 -48c-24.667 -15.333 -53.334 -23 -86.001 -23c-34.667 0 -63.167 9.83301 -85.5 29.5s-33.5 45.167 -33.5 76.5s11 58 33 80c-64 1.33301 -119.667 17 -167 47
s-83.833 72.167 -109.5 126.5s-38.5 118.166 -38.5 191.499c0 74.667 13 139.334 39 194.001s63.333 96.667 112 126s106.334 44 173.001 44c66 0 123.333 -14.667 172 -44s86.167 -71.333 112.5 -126s39.5 -119 39.5 -193c0 -92 -19.833 -168.667 -59.5 -230
s-95.834 -102.333 -168.501 -123c-49.333 -14 -74 -41.333 -74 -82zM209.002 139c42 -51.333 101 -77 177 -77c75.333 0 134 25.667 176 77s63 124 63 218s-20.833 166.333 -62.5 217s-100.5 76 -176.5 76s-135 -25.5 -177 -76.5s-63 -123.167 -63 -216.5
c0 -94 21 -166.667 63 -218z" />
    <glyph glyph-name="uni01EB" unicode="&#x1eb;" horiz-adv-x="572" 
d="M307 -26.5c-13.333 -13.667 -20 -31.4971 -20 -53.4971c0 -20.667 6 -36.834 18 -48.501s28.667 -17.5 50 -17.5c16.667 0 36.667 6.33301 60 19l16 -49c-23.333 -15.333 -52.333 -23 -87 -23c-35.333 0 -64.333 10 -87 30s-34 46 -34 78
c0 35.333 12.333 63.666 37 84.999c-64.667 6 -116.167 32.333 -154.5 79s-57.5 107 -57.5 181c0 52.667 9.83301 98.667 29.5 138s47.5 69.666 83.5 90.999s77.667 32 125 32s89 -10.667 125 -32s63.833 -51.666 83.5 -90.999s29.5 -85.333 29.5 -138
c0 -62 -13.333 -114.833 -40 -158.5s-63.667 -73.167 -111 -88.5c-30.667 -8.66699 -52.667 -19.834 -66 -33.501zM170.5 109.503c27 -33 65.499 -49.5 115.499 -49.5s88.333 16.5 115 49.5s40 81.167 40 144.5c0 61.333 -13.667 108.833 -41 142.5s-65.333 50.5 -114 50.5
c-49.333 0 -87.666 -16.833 -114.999 -50.5s-41 -81.167 -41 -142.5c0 -63.333 13.5 -111.5 40.5 -144.5z" />
    <glyph glyph-name="Aringacute" unicode="&#x1fa;" horiz-adv-x="734" 
d="M554 183h-372l-79 -183h-85l304 691c-16.667 8 -30.167 20.167 -40.5 36.5s-15.5 34.166 -15.5 53.499c0 28 9.83301 51.667 29.5 71s43.834 29 72.501 29c19.333 0 36.666 -4.66699 51.999 -14l81 83h92l-138 -117c10 -14.667 15 -32 15 -52s-5.33301 -38.167 -16 -54.5
s-24.667 -28.166 -42 -35.499l304 -691h-84zM333 816.5c-9.33301 -9.66699 -14 -21.5 -14 -35.5c0 -14.667 4.5 -26.834 13.5 -36.501s20.833 -14.5 35.5 -14.5c14 0 25.5 4.83301 34.5 14.5s13.5 21.834 13.5 36.501c0 14 -4.5 25.833 -13.5 35.5s-20.5 14.5 -34.5 14.5
s-25.667 -4.83301 -35 -14.5zM211 251h314l-157 366z" />
    <glyph glyph-name="aringacute" unicode="&#x1fb;" 
d="M227 601.5c-20 19.667 -30 43.834 -30 72.501s10 53 30 73s44.667 30 74 30c20 0 38 -5 54 -15l80 117l88 -3l-134 -148c10.667 -16 16 -34 16 -54c0 -28.667 -10.167 -52.834 -30.5 -72.501s-44.833 -29.5 -73.5 -29.5c-29.333 0 -54 9.83301 -74 29.5zM265 711
c-9.33301 -10 -14 -22.333 -14 -37c0 -14 4.83301 -26.167 14.5 -36.5s21.5 -15.5 35.5 -15.5s25.833 5.16699 35.5 15.5s14.5 22.5 14.5 36.5c0 14.667 -4.83301 27 -14.5 37s-21.5 15 -35.5 15c-14.667 0 -26.667 -5 -36 -15zM441 503l80.0029 -0.000976562v-503h-80v91
c-14.667 -31.333 -36.834 -55.5 -66.501 -72.5s-64.167 -25.5 -103.5 -25.5c-44.667 0 -83.834 10.667 -117.501 32s-59.667 51.5 -78 90.5s-27.5 84.5 -27.5 136.5s9.33301 97.833 28 137.5s44.834 70.5 78.501 92.5s72.5 33 116.5 33
c39.333 0 73.666 -8.66699 102.999 -26s51.666 -41.666 66.999 -72.999v87zM401.003 110.499c26.667 33.667 40 81.498 40 143.498s-13.333 109.667 -40 143s-64.667 50 -114 50s-87.833 -17.167 -115.5 -51.5s-41.5 -82.166 -41.5 -143.499s13.667 -108.666 41 -141.999
s66 -50 116 -50c49.333 0 87.333 16.833 114 50.5z" />
    <glyph glyph-name="AEacute" unicode="&#x1fc;" horiz-adv-x="1001" 
d="M951 643h-374l22 -247h332v-69h-326l23 -258h323v-69h-392l-16 183h-347l-108 -183h-90l433 712h520v-69zM537 251l-34 392h-34l-232 -392h300zM531 773h-57l102 153h89z" />
    <glyph glyph-name="aeacute" unicode="&#x1fd;" horiz-adv-x="881" 
d="M474 254v-0.999023c0 -62 14.333 -109.667 43 -143s70.667 -50 126 -50c54 0 106.667 19.667 158 59l26 -59c-21.333 -20.667 -49 -37 -83 -49s-68.333 -18 -103 -18c-50.667 0 -94 11.167 -130 33.5s-63 54.5 -81 96.5c-13.333 -41.333 -36 -73.333 -68 -96
s-70.667 -34 -116 -34c-35.333 0 -67 6.66699 -95 20s-50 32.166 -66 56.499s-24 51.833 -24 82.5c0 37.333 9.5 67.166 28.5 89.499s49.833 38.833 92.5 49.5s100 16 172 16h40v16c0 44 -8.5 75.833 -25.5 95.5s-45.167 29.5 -84.5 29.5
c-57.333 0 -115.666 -18 -174.999 -54l-27 59c25.333 18.667 56.5 33.667 93.5 45s72.833 17 107.5 17c84.667 0 140.667 -30 168 -90c20 28.667 45.167 50.834 75.5 66.501s64.166 23.5 101.499 23.5c64.667 0 115.5 -22.167 152.5 -66.5s55.5 -104.5 55.5 -180.5v-14h-362
zM527 414.501c-26 -25 -42.333 -60.833 -49 -107.5h285c-3.33301 46.667 -16.833 82.5 -40.5 107.5s-55.5 37.5 -95.5 37.5c-40.667 0 -74 -12.5 -100 -37.5zM355.5 100.501c25.667 29 38.5 66.5 38.5 112.5v42h-36c-54 0 -96.5 -3.5 -127.5 -10.5
s-53.167 -17.667 -66.5 -32s-20 -33.5 -20 -57.5c0 -29.333 10.167 -53 30.5 -71s46.833 -27 79.5 -27c42 0 75.833 14.5 101.5 43.5zM463 568.001h-57l100 204h94z" />
    <glyph glyph-name="Oslashacute" unicode="&#x1fe;" horiz-adv-x="772" 
d="M680.5 528.5c19.667 -49.667 29.499 -106.832 29.499 -171.499c0 -74.667 -13.167 -139.334 -39.5 -194.001s-63.833 -96.834 -112.5 -126.501s-106 -44.5 -172 -44.5c-57.333 0 -108.666 11.333 -153.999 34l-43 -73l-57 33l45 77c-37.333 31.333 -65.833 72 -85.5 122
s-29.5 107 -29.5 171c0 74.667 13 139.334 39 194.001s63.333 96.667 112 126s106.334 44 173.001 44c57.333 0 108.666 -11.333 153.999 -34l43 73l56 -33l-44 -76c37.333 -31.333 65.833 -71.833 85.5 -121.5zM215.999 131.002l288 492c-34 18 -73.333 27 -118 27
c-76 0 -135 -25.5 -177 -76.5s-63 -123.167 -63 -216.5c0 -98.667 23.333 -174 70 -226zM561.999 139.002c42 51.333 63.001 124 63.001 218c0 100 -23.333 175 -70 225l-287 -492c33.333 -18.667 72.666 -28 117.999 -28c75.333 0 134 25.667 176 77zM413 773.002h-57
l102 153h89z" />
    <glyph glyph-name="oslashacute" unicode="&#x1ff;" horiz-adv-x="572" 
d="M502 374.5c14.667 -35.667 22 -75.834 22 -120.501c0 -52.667 -9.83301 -98.667 -29.5 -138s-47.5 -69.666 -83.5 -90.999s-77.667 -32 -125 -32c-38 0 -73.333 7.33301 -106 22l-36 -62l-49 29l37 64c-26.667 22.667 -47.334 51.834 -62.001 87.501
s-22 75.834 -22 120.501c0 52.667 9.83301 98.667 29.5 138s47.5 69.666 83.5 90.999s77.667 32 125 32c38 0 73.333 -7.33301 106 -22l35 60l50 -27l-37 -64c26.667 -22.667 47.334 -51.834 62.001 -87.501zM170 110l186.999 323c-20 10 -43.667 15 -71 15
c-49.333 0 -87.666 -16.833 -114.999 -50.5s-41 -81.5 -41 -143.5s13.333 -110 40 -144zM401.499 109.5c27 33 40.499 81.167 40.499 144.5c0 60.667 -13.333 108 -40 142l-187 -322c20.667 -9.33301 44.334 -14 71.001 -14c50 0 88.5 16.5 115.5 49.5zM313.998 568h-57
l100 204h94z" />
    <glyph glyph-name="uni0200" unicode="&#x200;" horiz-adv-x="734" 
d="M632 0l-78 183h-372l-79 -183h-85l313 712h72l313 -712h-84zM211 251h314l-157 366zM284 773l-98 153h70l72 -153h-44zM405 773l-99 153h72l71 -153h-44z" />
    <glyph glyph-name="uni0201" unicode="&#x201;" 
d="M521 503l0.00292969 -503.001h-80v91c-14.667 -31.333 -36.834 -55.5 -66.501 -72.5s-64.167 -25.5 -103.5 -25.5c-44.667 0 -83.834 10.667 -117.501 32s-59.667 51.5 -78 90.5s-27.5 84.5 -27.5 136.5s9.33301 97.833 28 137.5s44.834 70.5 78.501 92.5
s72.5 33 116.5 33c39.333 0 73.666 -8.66699 102.999 -26s51.666 -41.666 66.999 -72.999v87h80zM401.003 110.499c26.667 33.667 40 81.498 40 143.498s-13.333 109.667 -40 143s-64.667 50 -114 50s-87.833 -17.167 -115.5 -51.5s-41.5 -82.166 -41.5 -143.499
s13.667 -108.666 41 -141.999s66 -50 116 -50c49.333 0 87.333 16.833 114 50.5zM219.003 567.997l-80 204h76l45 -204h-41zM341.003 567.997l-80 204h75l46 -204h-41z" />
    <glyph glyph-name="uni0202" unicode="&#x202;" horiz-adv-x="734" 
d="M632 0l-78 183h-372l-79 -183h-85l313 712h72l313 -712h-84zM211 251h314l-157 366zM466 889.5c28.667 -17 50.332 -44.167 64.999 -81.5l-51 -22c-15.333 26.667 -32 45.167 -50 55.5s-39 15.5 -63 15.5c-24.667 0 -46 -5.16699 -64 -15.5s-34.667 -28.833 -50 -55.5
l-51 22c14.667 37.333 36.334 64.5 65.001 81.5s62 25.5 100 25.5c37.333 0 70.333 -8.5 99 -25.5z" />
    <glyph glyph-name="uni0203" unicode="&#x203;" 
d="M521 503l0.00292969 -503.001h-80v91c-14.667 -31.333 -36.834 -55.5 -66.501 -72.5s-64.167 -25.5 -103.5 -25.5c-44.667 0 -83.834 10.667 -117.501 32s-59.667 51.5 -78 90.5s-27.5 84.5 -27.5 136.5s9.33301 97.833 28 137.5s44.834 70.5 78.501 92.5
s72.5 33 116.5 33c39.333 0 73.666 -8.66699 102.999 -26s51.666 -41.666 66.999 -72.999v87h80zM401.003 110.499c26.667 33.667 40 81.498 40 143.498s-13.333 109.667 -40 143s-64.667 50 -114 50s-87.833 -17.167 -115.5 -51.5s-41.5 -82.166 -41.5 -143.499
s13.667 -108.666 41 -141.999s66 -50 116 -50c49.333 0 87.333 16.833 114 50.5zM401.503 714.997c29.667 -20.667 51.5 -52.667 65.5 -96l-51 -22c-14.667 31.333 -31.5 54 -50.5 68s-40.5 21 -64.5 21s-45.667 -6.83301 -65 -20.5s-36.333 -36.5 -51 -68.5l-51 21
c14 43.333 35.833 75.5 65.5 96.5s63.5 31.5 101.5 31.5c37.333 0 70.833 -10.333 100.5 -31z" />
    <glyph glyph-name="uni0204" unicode="&#x204;" horiz-adv-x="588" 
d="M88 0v712h450v-68h-369v-248h349v-69h-349v-259h369v-68h-450zM244 773l-98 153h70l72 -153h-44zM365 773l-99 153h72l71 -153h-44z" />
    <glyph glyph-name="uni0205" unicode="&#x205;" horiz-adv-x="544" 
d="M499 254l-368.999 0.000976562c0.666992 -64 15.5 -112.333 44.5 -145s71.167 -49 126.5 -49c58.667 0 112.667 19.667 162 59l27 -59c-22 -20.667 -50.167 -37 -84.5 -49s-69.5 -18 -105.5 -18c-78.667 0 -140.334 23.167 -185.001 69.5s-67 109.833 -67 190.5
c0 51.333 10 96.833 30 136.5s48 70.5 84 92.5s77 33 123 33c66.667 0 119 -21.833 157 -65.5s57 -103.834 57 -180.501v-15zM183.501 414.001c-26.333 -25.333 -43.167 -61 -50.5 -107h293c-4 47.333 -17.833 83.333 -41.5 108s-56.5 37 -98.5 37
s-76.167 -12.667 -102.5 -38zM203 568.001l-80 204h76l45 -204h-41zM325 568.001l-80 204h75l46 -204h-41z" />
    <glyph glyph-name="uni0206" unicode="&#x206;" horiz-adv-x="588" 
d="M88 0v712h450v-68h-369v-248h349v-69h-349v-259h369v-68h-450zM426 889.5c28.667 -17 50.332 -44.167 64.999 -81.5l-51 -22c-15.333 26.667 -32 45.167 -50 55.5s-39 15.5 -63 15.5c-24.667 0 -46 -5.16699 -64 -15.5s-34.667 -28.833 -50 -55.5l-51 22
c14.667 37.333 36.334 64.5 65.001 81.5s62 25.5 100 25.5c37.333 0 70.333 -8.5 99 -25.5z" />
    <glyph glyph-name="uni0207" unicode="&#x207;" horiz-adv-x="544" 
d="M499 254l-368.999 0.000976562c0.666992 -64 15.5 -112.333 44.5 -145s71.167 -49 126.5 -49c58.667 0 112.667 19.667 162 59l27 -59c-22 -20.667 -50.167 -37 -84.5 -49s-69.5 -18 -105.5 -18c-78.667 0 -140.334 23.167 -185.001 69.5s-67 109.833 -67 190.5
c0 51.333 10 96.833 30 136.5s48 70.5 84 92.5s77 33 123 33c66.667 0 119 -21.833 157 -65.5s57 -103.834 57 -180.501v-15zM183.501 414.001c-26.333 -25.333 -43.167 -61 -50.5 -107h293c-4 47.333 -17.833 83.333 -41.5 108s-56.5 37 -98.5 37
s-76.167 -12.667 -102.5 -38zM385.5 715.001c29.667 -20.667 51.5 -52.667 65.5 -96l-51 -22c-14.667 31.333 -31.5 54 -50.5 68s-40.5 21 -64.5 21s-45.667 -6.83301 -65 -20.5s-36.333 -36.5 -51 -68.5l-51 21c14 43.333 35.833 75.5 65.5 96.5s63.5 31.5 101.5 31.5
c37.333 0 70.833 -10.333 100.5 -31z" />
    <glyph glyph-name="uni0208" unicode="&#x208;" horiz-adv-x="258" 
d="M88 0v712h82v-712h-82zM46 773l-98 153h70l72 -153h-44zM167 773l-99 153h72l71 -153h-44z" />
    <glyph glyph-name="uni0209" unicode="&#x209;" horiz-adv-x="238" 
d="M78 0v503h81v-503h-81zM38 568l-80 204h76l45 -204h-41zM160 568l-80 204h75l46 -204h-41z" />
    <glyph glyph-name="uni020A" unicode="&#x20a;" horiz-adv-x="258" 
d="M88 0v712h82v-712h-82zM228 889.5c28.667 -17 50.332 -44.167 64.999 -81.5l-51 -22c-15.333 26.667 -32 45.167 -50 55.5s-39 15.5 -63 15.5c-24.667 0 -46 -5.16699 -64 -15.5s-34.667 -28.833 -50 -55.5l-51 22c14.667 37.333 36.334 64.5 65.001 81.5
s62 25.5 100 25.5c37.333 0 70.333 -8.5 99 -25.5z" />
    <glyph glyph-name="uni020B" unicode="&#x20b;" horiz-adv-x="238" 
d="M78 0v503h81v-503h-81zM220.5 715c29.667 -20.667 51.5 -52.667 65.5 -96l-51 -22c-14.667 31.333 -31.5 54 -50.5 68s-40.5 21 -64.5 21s-45.667 -6.83301 -65 -20.5s-36.333 -36.5 -51 -68.5l-51 21c14 43.333 35.833 75.5 65.5 96.5s63.5 31.5 101.5 31.5
c37.333 0 70.833 -10.333 100.5 -31z" />
    <glyph glyph-name="uni020C" unicode="&#x20c;" horiz-adv-x="772" 
d="M214 36c-48.667 29.333 -86.1689 71.501 -112.502 126.501s-39.5 119.5 -39.5 193.5c0 74.667 13 139.334 39 194.001s63.333 96.667 112 126s106.334 44 173.001 44s124.334 -14.667 173.001 -44s86 -71.333 112 -126s39 -119 39 -193
c0 -74.667 -13.167 -139.334 -39.5 -194.001s-63.833 -96.834 -112.5 -126.501s-106 -44.5 -172 -44.5s-123.333 14.667 -172 44zM561.998 139.001c42 51.333 63 124 63 218s-20.833 166.333 -62.5 217s-100.5 76 -176.5 76s-135 -25.5 -177 -76.5s-63 -123.167 -63 -216.5
c0 -94 21 -166.667 63 -218s101 -77 177 -77c75.333 0 134 25.667 176 77zM301.998 773.001l-98 153h70l72 -153h-44zM422.998 773.001l-99 153h72l71 -153h-44z" />
    <glyph glyph-name="uni020D" unicode="&#x20d;" horiz-adv-x="572" 
d="M161 25c-36 21.333 -63.833 51.666 -83.5 90.999s-29.5 85.333 -29.5 138s9.83301 98.667 29.5 138s47.5 69.666 83.5 90.999s77.667 32 125 32s89 -10.667 125 -32s63.833 -51.666 83.5 -90.999s29.5 -85.333 29.5 -138s-9.83301 -98.667 -29.5 -138
s-47.5 -69.666 -83.5 -90.999s-77.667 -32 -125 -32s-89 10.667 -125 32zM401 109.5c26.667 33 39.999 81.167 39.999 144.5c0 61.333 -13.667 108.833 -41 142.5s-65.333 50.5 -114 50.5c-49.333 0 -87.666 -16.833 -114.999 -50.5s-41 -81.167 -41 -142.5
c0 -63.333 13.5 -111.5 40.5 -144.5s65.5 -49.5 115.5 -49.5s88.333 16.5 115 49.5zM203.999 568l-80 204h76l45 -204h-41zM325.999 568l-80 204h75l46 -204h-41z" />
    <glyph glyph-name="uni020E" unicode="&#x20e;" horiz-adv-x="772" 
d="M214 36c-48.667 29.333 -86.1689 71.501 -112.502 126.501s-39.5 119.5 -39.5 193.5c0 74.667 13 139.334 39 194.001s63.333 96.667 112 126s106.334 44 173.001 44s124.334 -14.667 173.001 -44s86 -71.333 112 -126s39 -119 39 -193
c0 -74.667 -13.167 -139.334 -39.5 -194.001s-63.833 -96.834 -112.5 -126.501s-106 -44.5 -172 -44.5s-123.333 14.667 -172 44zM561.998 139.001c42 51.333 63 124 63 218s-20.833 166.333 -62.5 217s-100.5 76 -176.5 76s-135 -25.5 -177 -76.5s-63 -123.167 -63 -216.5
c0 -94 21 -166.667 63 -218s101 -77 177 -77c75.333 0 134 25.667 176 77zM483.998 889.501c28.667 -17 50.332 -44.167 64.999 -81.5l-51 -22c-15.333 26.667 -32 45.167 -50 55.5s-39 15.5 -63 15.5c-24.667 0 -46 -5.16699 -64 -15.5s-34.667 -28.833 -50 -55.5l-51 22
c14.667 37.333 36.334 64.5 65.001 81.5s62 25.5 100 25.5c37.333 0 70.333 -8.5 99 -25.5z" />
    <glyph glyph-name="uni020F" unicode="&#x20f;" horiz-adv-x="572" 
d="M161 25c-36 21.333 -63.833 51.666 -83.5 90.999s-29.5 85.333 -29.5 138s9.83301 98.667 29.5 138s47.5 69.666 83.5 90.999s77.667 32 125 32s89 -10.667 125 -32s63.833 -51.666 83.5 -90.999s29.5 -85.333 29.5 -138s-9.83301 -98.667 -29.5 -138
s-47.5 -69.666 -83.5 -90.999s-77.667 -32 -125 -32s-89 10.667 -125 32zM401 109.5c26.667 33 39.999 81.167 39.999 144.5c0 61.333 -13.667 108.833 -41 142.5s-65.333 50.5 -114 50.5c-49.333 0 -87.666 -16.833 -114.999 -50.5s-41 -81.167 -41 -142.5
c0 -63.333 13.5 -111.5 40.5 -144.5s65.5 -49.5 115.5 -49.5s88.333 16.5 115 49.5zM386.499 715c29.667 -20.667 51.5 -52.667 65.5 -96l-51 -22c-14.667 31.333 -31.5 54 -50.5 68s-40.5 21 -64.5 21s-45.667 -6.83301 -65 -20.5s-36.333 -36.5 -51 -68.5l-51 21
c14 43.333 35.833 75.5 65.5 96.5s63.5 31.5 101.5 31.5c37.333 0 70.833 -10.333 100.5 -31z" />
    <glyph glyph-name="uni0210" unicode="&#x210;" horiz-adv-x="693" 
d="M647 0h-87.001l-88 237c-10.667 29.333 -25.5 49 -44.5 59s-45.833 15 -80.5 15h-178v-311h-81v712h283c76.667 0 135.5 -17 176.5 -51s61.5 -83 61.5 -147c0 -46.667 -12.167 -85.834 -36.5 -117.501s-59.5 -54.167 -105.5 -67.5
c20.667 -3.33301 38.334 -12.166 53.001 -26.499s27 -34.833 37 -61.5zM363.999 379c109.333 0 164 44.667 164 134c0 44 -13.333 76.833 -40 98.5s-68 32.5 -124 32.5h-195v-265h195zM260.999 773l-98 153h70l72 -153h-44zM381.999 773l-99 153h72l71 -153h-44z" />
    <glyph glyph-name="uni0211" unicode="&#x211;" horiz-adv-x="362" 
d="M358 509l-1.99902 -74.001c-15.333 5.33301 -33 8 -53 8c-48.667 0 -84.834 -15.167 -108.501 -45.5s-35.5 -67.166 -35.5 -110.499v-287h-81v362c0 52 -2.66699 99 -8 141h77l8 -93c12.667 34 33 60 61 78s60 27 96 27c16.667 0 32 -2 46 -6zM139.001 567.999l-80 204
h76l45 -204h-41zM261.001 567.999l-80 204h75l46 -204h-41z" />
    <glyph glyph-name="uni0212" unicode="&#x212;" horiz-adv-x="693" 
d="M647 0h-87.001l-88 237c-10.667 29.333 -25.5 49 -44.5 59s-45.833 15 -80.5 15h-178v-311h-81v712h283c76.667 0 135.5 -17 176.5 -51s61.5 -83 61.5 -147c0 -46.667 -12.167 -85.834 -36.5 -117.501s-59.5 -54.167 -105.5 -67.5
c20.667 -3.33301 38.334 -12.166 53.001 -26.499s27 -34.833 37 -61.5zM363.999 379c109.333 0 164 44.667 164 134c0 44 -13.333 76.833 -40 98.5s-68 32.5 -124 32.5h-195v-265h195zM442.999 889.5c28.667 -17 50.332 -44.167 64.999 -81.5l-51 -22
c-15.333 26.667 -32 45.167 -50 55.5s-39 15.5 -63 15.5c-24.667 0 -46 -5.16699 -64 -15.5s-34.667 -28.833 -50 -55.5l-51 22c14.667 37.333 36.334 64.5 65.001 81.5s62 25.5 100 25.5c37.333 0 70.333 -8.5 99 -25.5z" />
    <glyph glyph-name="uni0213" unicode="&#x213;" horiz-adv-x="362" 
d="M358 509l-1.99902 -74.001c-15.333 5.33301 -33 8 -53 8c-48.667 0 -84.834 -15.167 -108.501 -45.5s-35.5 -67.166 -35.5 -110.499v-287h-81v362c0 52 -2.66699 99 -8 141h77l8 -93c12.667 34 33 60 61 78s60 27 96 27c16.667 0 32 -2 46 -6zM321.501 714.999
c29.667 -20.667 51.5 -52.667 65.5 -96l-51 -22c-14.667 31.333 -31.5 54 -50.5 68s-40.5 21 -64.5 21s-45.667 -6.83301 -65 -20.5s-36.333 -36.5 -51 -68.5l-51 21c14 43.333 35.833 75.5 65.5 96.5s63.5 31.5 101.5 31.5c37.333 0 70.833 -10.333 100.5 -31z" />
    <glyph glyph-name="uni0214" unicode="&#x214;" horiz-adv-x="731" 
d="M154.5 64.5c-47.667 48.333 -71.5 119.833 -71.5 214.5v433h81v-440c0 -69.333 17 -121.666 51 -156.999s84.333 -53 151 -53c66 0 115.833 17.667 149.5 53s50.5 87.666 50.5 156.999v440h82v-433c0 -94 -24 -165.333 -72 -214s-118 -73 -210 -73
c-93.333 0 -163.833 24.167 -211.5 72.5zM283 773l-98 153h70l72 -153h-44zM404 773l-99 153h72l71 -153h-44z" />
    <glyph glyph-name="uni0215" unicode="&#x215;" horiz-adv-x="577" 
d="M499 503v-503h-79v87c-16 -30.667 -38.333 -54 -67 -70s-61 -24 -97 -24c-59.333 0 -104.333 16.667 -135 50s-46 82.666 -46 147.999v312h81v-310c0 -45.333 9.33301 -78.666 28 -99.999s47 -32 85 -32c44.667 0 80.667 14.5 108 43.5s41 67.167 41 114.5v284h81z
M207 568l-80 204h76l45 -204h-41zM329 568l-80 204h75l46 -204h-41z" />
    <glyph glyph-name="uni0216" unicode="&#x216;" horiz-adv-x="731" 
d="M154.5 64.5c-47.667 48.333 -71.5 119.833 -71.5 214.5v433h81v-440c0 -69.333 17 -121.666 51 -156.999s84.333 -53 151 -53c66 0 115.833 17.667 149.5 53s50.5 87.666 50.5 156.999v440h82v-433c0 -94 -24 -165.333 -72 -214s-118 -73 -210 -73
c-93.333 0 -163.833 24.167 -211.5 72.5zM465 889.5c28.667 -17 50.332 -44.167 64.999 -81.5l-51 -22c-15.333 26.667 -32 45.167 -50 55.5s-39 15.5 -63 15.5c-24.667 0 -46 -5.16699 -64 -15.5s-34.667 -28.833 -50 -55.5l-51 22c14.667 37.333 36.334 64.5 65.001 81.5
s62 25.5 100 25.5c37.333 0 70.333 -8.5 99 -25.5z" />
    <glyph glyph-name="uni0217" unicode="&#x217;" horiz-adv-x="577" 
d="M499 503v-503h-79v87c-16 -30.667 -38.333 -54 -67 -70s-61 -24 -97 -24c-59.333 0 -104.333 16.667 -135 50s-46 82.666 -46 147.999v312h81v-310c0 -45.333 9.33301 -78.666 28 -99.999s47 -32 85 -32c44.667 0 80.667 14.5 108 43.5s41 67.167 41 114.5v284h81z
M389.5 715c29.667 -20.667 51.5 -52.667 65.5 -96l-51 -22c-14.667 31.333 -31.5 54 -50.5 68s-40.5 21 -64.5 21s-45.667 -6.83301 -65 -20.5s-36.333 -36.5 -51 -68.5l-51 21c14 43.333 35.833 75.5 65.5 96.5s63.5 31.5 101.5 31.5c37.333 0 70.833 -10.333 100.5 -31z
" />
    <glyph glyph-name="Scommaaccent" unicode="&#x218;" horiz-adv-x="623" 
d="M48 82l30.9971 62.999c35.333 -30 71.333 -51.333 108 -64s79.334 -19 128.001 -19c57.333 0 101.5 11.167 132.5 33.5s46.5 53.833 46.5 94.5c0 24 -7.5 43.5 -22.5 58.5s-34.667 26.833 -59 35.5s-56.833 17.667 -97.5 27c-54.667 12 -99.667 25 -135 39
s-64 34.167 -86 60.5s-33 60.833 -33 103.5c0 40.667 10.667 76.5 32 107.5s51.5 55.167 90.5 72.5s84.5 26 136.5 26c49.333 0 95.333 -7.66699 138 -23s78.667 -37.666 108 -66.999l-32 -63c-33.333 28.667 -67.166 49.667 -101.499 63s-71.833 20 -112.5 20
c-55.333 0 -98.666 -11.833 -129.999 -35.5s-47 -56.167 -47 -97.5c0 -36 13.667 -63 41 -81s69.333 -33.667 126 -47c61.333 -14.667 109.5 -28.167 144.5 -40.5s64.167 -31 87.5 -56s35 -58.167 35 -99.5c0 -40 -10.667 -75.167 -32 -105.5s-51.833 -53.833 -91.5 -70.5
s-86.167 -25 -139.5 -25c-111.333 0 -200 30 -266 90zM363.997 -73.001l0.000976562 -58c0 -26.667 -3.83301 -50.5 -11.5 -71.5s-21.167 -40.833 -40.5 -59.5l-37 28c12.667 13.333 21.667 26 27 38s8.66602 25.333 9.99902 40h-47v83h99z" />
    <glyph glyph-name="scommaaccent" unicode="&#x219;" horiz-adv-x="496" 
d="M47 58l27.002 59.999c27.333 -21.333 55 -36.666 83 -45.999s59.333 -14 94 -14c38 0 66.833 6.5 86.5 19.5s29.5 31.833 29.5 56.5c0 20 -6.66699 36 -20 48s-35.333 21.333 -66 28l-85 20c-42 9.33301 -74.5 26 -97.5 50s-34.5 52.667 -34.5 86
c0 44 17.667 79.833 53 107.5s82 41.5 140 41.5c35.333 0 68.666 -5.66699 99.999 -17s57.666 -27.666 78.999 -48.999l-27 -59c-47.333 39.333 -98 59 -152 59c-36 0 -63.833 -6.83301 -83.5 -20.5s-29.5 -32.834 -29.5 -57.501c0 -20.667 6.16699 -37 18.5 -49
s32.166 -21.333 59.499 -28l85 -21c46.667 -10.667 81.334 -27.167 104.001 -49.5s34 -51.5 34 -87.5c0 -43.333 -17.667 -78 -53 -104s-83.333 -39 -144 -39c-84.667 0 -151.667 21.667 -201 65zM296.002 -73.001l0.000976562 -58c0 -26.667 -3.83301 -50.5 -11.5 -71.5
s-21.167 -40.833 -40.5 -59.5l-37 28c12.667 13.333 21.667 26 27 38s8.66602 25.333 9.99902 40h-47v83h99z" />
    <glyph glyph-name="uni021A" unicode="&#x21a;" horiz-adv-x="603" 
d="M260 0v642h-248v70h579v-70h-248v-642h-83zM351 -73l0.000976562 -58c0 -26.667 -3.83301 -50.5 -11.5 -71.5s-21.167 -40.833 -40.5 -59.5l-37 28c12.667 13.333 21.667 26 27 38s8.66602 25.333 9.99902 40h-47v83h99z" />
    <glyph glyph-name="uni021B" unicode="&#x21b;" horiz-adv-x="350" 
d="M186 439v-275c0 -37.333 7.66699 -63.5 23 -78.5s37 -22.5 65 -22.5c18.667 0 36.667 3 54 9v-69c-20.667 -6.66699 -44 -10 -70 -10c-48 0 -85.5 13.5 -112.5 40.5s-40.5 66.833 -40.5 119.5v286h-98v64h98v129l81 29v-158h144v-64h-144zM274 -73l0.000976562 -58
c0 -26.667 -3.83301 -50.5 -11.5 -71.5s-21.167 -40.833 -40.5 -59.5l-37 28c12.667 13.333 21.667 26 27 38s8.66602 25.333 9.99902 40h-47v83h99z" />
    <glyph glyph-name="uni0227" unicode="&#x227;" 
d="M521 503l0.00292969 -503.001h-80v91c-14.667 -31.333 -36.834 -55.5 -66.501 -72.5s-64.167 -25.5 -103.5 -25.5c-44.667 0 -83.834 10.667 -117.501 32s-59.667 51.5 -78 90.5s-27.5 84.5 -27.5 136.5s9.33301 97.833 28 137.5s44.834 70.5 78.501 92.5
s72.5 33 116.5 33c39.333 0 73.666 -8.66699 102.999 -26s51.666 -41.666 66.999 -72.999v87h80zM401.003 110.499c26.667 33.667 40 81.498 40 143.498s-13.333 109.667 -40 143s-64.667 50 -114 50s-87.833 -17.167 -115.5 -51.5s-41.5 -82.166 -41.5 -143.499
s13.667 -108.666 41 -141.999s66 -50 116 -50c49.333 0 87.333 16.833 114 50.5zM251.003 715.997h99v-92h-99v92z" />
    <glyph glyph-name="uni0228" unicode="&#x228;" horiz-adv-x="588" 
d="M169 644v-248h349v-69h-349v-259h369v-68h-192l-5 -43c10.667 1.33301 18.667 2 24 2c21.333 0 39.5 -6 54.5 -18s22.5 -29.333 22.5 -52c0 -24.667 -10.333 -44.834 -31 -60.501s-49.334 -23.5 -86.001 -23.5c-14 0 -29.333 1.66699 -46 5s-31 8 -43 14l13 44
c24 -9.33301 49.333 -14 76 -14c18 0 31.833 3 41.5 9s14.5 14.667 14.5 26c0 8.66699 -3 15.334 -9 20.001s-14.667 7 -26 7c-15.333 0 -30.666 -3 -45.999 -9l-20 16l9 77h-201v712h450v-68h-369z" />
    <glyph glyph-name="uni022A" unicode="&#x22a;" horiz-adv-x="772" 
d="M214 36c-48.667 29.333 -86.1689 71.501 -112.502 126.501s-39.5 119.5 -39.5 193.5c0 74.667 13 139.334 39 194.001s63.333 96.667 112 126s106.334 44 173.001 44s124.334 -14.667 173.001 -44s86 -71.333 112 -126s39 -119 39 -193
c0 -74.667 -13.167 -139.334 -39.5 -194.001s-63.833 -96.834 -112.5 -126.501s-106 -44.5 -172 -44.5s-123.333 14.667 -172 44zM561.998 139.001c42 51.333 63 124 63 218s-20.833 166.333 -62.5 217s-100.5 76 -176.5 76s-135 -25.5 -177 -76.5s-63 -123.167 -63 -216.5
c0 -94 21 -166.667 63 -218s101 -77 177 -77c75.333 0 134 25.667 176 77zM252.998 893.001h90v-86h-90v86zM425.998 893.001h90v-86h-90v86zM232.998 981.001v62h303v-62h-303z" />
    <glyph glyph-name="uni022B" unicode="&#x22b;" horiz-adv-x="572" 
d="M161 25c-36 21.333 -63.833 51.666 -83.5 90.999s-29.5 85.333 -29.5 138s9.83301 98.667 29.5 138s47.5 69.666 83.5 90.999s77.667 32 125 32s89 -10.667 125 -32s63.833 -51.666 83.5 -90.999s29.5 -85.333 29.5 -138s-9.83301 -98.667 -29.5 -138
s-47.5 -69.666 -83.5 -90.999s-77.667 -32 -125 -32s-89 10.667 -125 32zM401 109.5c26.667 33 39.999 81.167 39.999 144.5c0 61.333 -13.667 108.833 -41 142.5s-65.333 50.5 -114 50.5c-49.333 0 -87.666 -16.833 -114.999 -50.5s-41 -81.167 -41 -142.5
c0 -63.333 13.5 -111.5 40.5 -144.5s65.5 -49.5 115.5 -49.5s88.333 16.5 115 49.5zM153.999 713h90v-86h-90v86zM326.999 713h90v-86h-90v86zM133.999 835v62h303v-62h-303z" />
    <glyph glyph-name="uni022C" unicode="&#x22c;" horiz-adv-x="772" 
d="M214 36c-48.667 29.333 -86.1689 71.501 -112.502 126.501s-39.5 119.5 -39.5 193.5c0 74.667 13 139.334 39 194.001s63.333 96.667 112 126s106.334 44 173.001 44s124.334 -14.667 173.001 -44s86 -71.333 112 -126s39 -119 39 -193
c0 -74.667 -13.167 -139.334 -39.5 -194.001s-63.833 -96.834 -112.5 -126.501s-106 -44.5 -172 -44.5s-123.333 14.667 -172 44zM561.998 139.001c42 51.333 63 124 63 218s-20.833 166.333 -62.5 217s-100.5 76 -176.5 76s-135 -25.5 -177 -76.5s-63 -123.167 -63 -216.5
c0 -94 21 -166.667 63 -218s101 -77 177 -77c75.333 0 134 25.667 176 77zM246.498 879.501c16.333 20.333 38.166 30.5 65.499 30.5c14 0 27.333 -2.83301 40 -8.5s27.667 -13.834 45 -24.501c14 -8.66699 25.167 -15 33.5 -19s16.5 -6 24.5 -6
c14.667 0 26.167 5.33301 34.5 16s12.5 23.667 12.5 39h45c0 -36.667 -8.16699 -65.167 -24.5 -85.5s-38.166 -30.5 -65.499 -30.5c-14 0 -27.333 2.83301 -40 8.5s-27.667 13.834 -45 24.501c-14 8.66699 -25.167 15 -33.5 19s-16.5 6 -24.5 6
c-14.667 0 -26.167 -5.33301 -34.5 -16s-12.5 -23.667 -12.5 -39h-45c0 36.667 8.16699 65.167 24.5 85.5zM232.998 981.001v62h303v-62h-303z" />
    <glyph glyph-name="uni022D" unicode="&#x22d;" horiz-adv-x="572" 
d="M161 25c-36 21.333 -63.833 51.666 -83.5 90.999s-29.5 85.333 -29.5 138s9.83301 98.667 29.5 138s47.5 69.666 83.5 90.999s77.667 32 125 32s89 -10.667 125 -32s63.833 -51.666 83.5 -90.999s29.5 -85.333 29.5 -138s-9.83301 -98.667 -29.5 -138
s-47.5 -69.666 -83.5 -90.999s-77.667 -32 -125 -32s-89 10.667 -125 32zM401 109.5c26.667 33 39.999 81.167 39.999 144.5c0 61.333 -13.667 108.833 -41 142.5s-65.333 50.5 -114 50.5c-49.333 0 -87.666 -16.833 -114.999 -50.5s-41 -81.167 -41 -142.5
c0 -63.333 13.5 -111.5 40.5 -144.5s65.5 -49.5 115.5 -49.5s88.333 16.5 115 49.5zM147.499 700c16.333 20 38.166 30 65.499 30c14 0 27.333 -2.83301 40 -8.5s27.667 -13.834 45 -24.501c14 -8.66699 25.167 -15 33.5 -19s16.5 -6 24.5 -6
c14.667 0 26.167 5.33301 34.5 16s12.5 23.667 12.5 39h45c0 -36.667 -8.16699 -65 -24.5 -85s-38.166 -30 -65.499 -30c-14 0 -27.333 2.83301 -40 8.5s-27.667 13.834 -45 24.501c-14 8.66699 -25.167 15 -33.5 19s-16.5 6 -24.5 6c-14.667 0 -26.167 -5.33301 -34.5 -16
s-12.5 -23.667 -12.5 -39h-45c0 36.667 8.16699 65 24.5 85zM133.999 835v62h303v-62h-303z" />
    <glyph glyph-name="uni0230" unicode="&#x230;" horiz-adv-x="772" 
d="M214 36c-48.667 29.333 -86.1689 71.501 -112.502 126.501s-39.5 119.5 -39.5 193.5c0 74.667 13 139.334 39 194.001s63.333 96.667 112 126s106.334 44 173.001 44s124.334 -14.667 173.001 -44s86 -71.333 112 -126s39 -119 39 -193
c0 -74.667 -13.167 -139.334 -39.5 -194.001s-63.833 -96.834 -112.5 -126.501s-106 -44.5 -172 -44.5s-123.333 14.667 -172 44zM561.998 139.001c42 51.333 63 124 63 218s-20.833 166.333 -62.5 217s-100.5 76 -176.5 76s-135 -25.5 -177 -76.5s-63 -123.167 -63 -216.5
c0 -94 21 -166.667 63 -218s101 -77 177 -77c75.333 0 134 25.667 176 77zM334.998 896.001h99v-92h-99v92zM232.998 981.001v62h303v-62h-303z" />
    <glyph glyph-name="uni0231" unicode="&#x231;" horiz-adv-x="572" 
d="M161 25c-36 21.333 -63.833 51.666 -83.5 90.999s-29.5 85.333 -29.5 138s9.83301 98.667 29.5 138s47.5 69.666 83.5 90.999s77.667 32 125 32s89 -10.667 125 -32s63.833 -51.666 83.5 -90.999s29.5 -85.333 29.5 -138s-9.83301 -98.667 -29.5 -138
s-47.5 -69.666 -83.5 -90.999s-77.667 -32 -125 -32s-89 10.667 -125 32zM401 109.5c26.667 33 39.999 81.167 39.999 144.5c0 61.333 -13.667 108.833 -41 142.5s-65.333 50.5 -114 50.5c-49.333 0 -87.666 -16.833 -114.999 -50.5s-41 -81.167 -41 -142.5
c0 -63.333 13.5 -111.5 40.5 -144.5s65.5 -49.5 115.5 -49.5s88.333 16.5 115 49.5zM235.999 716h99v-92h-99v92zM133.999 835v62h303v-62h-303z" />
    <glyph glyph-name="uni0232" unicode="&#x232;" horiz-adv-x="607" 
d="M624 712l-280 -424v-288h-82v289l-280 423h96l226 -350l226 350h94zM151 819v62h303v-62h-303z" />
    <glyph glyph-name="uni0233" unicode="&#x233;" horiz-adv-x="531" 
d="M520 503l-234.999 -549.002c-24.667 -57.333 -55.667 -99.333 -93 -126s-83.333 -45 -138 -55l-17 63c47.333 10.667 83.166 24.834 107.499 42.501s44.5 44.834 60.5 81.501l20 45l-213 498h85l170 -415l172 415h81zM114.001 638.998v62h303v-62h-303z" />
    <glyph glyph-name="uni0237" unicode="&#x237;" horiz-adv-x="238" 
d="M-6 -150c56 0 84 33.333 84 100v553h81v-563c0 -52.667 -13.167 -92.5 -39.5 -119.5s-62.5 -40.5 -108.5 -40.5c-22 0 -44 3 -66 9v69c18 -5.33301 34.333 -8 49 -8z" />
    <glyph glyph-name="uni0259" unicode="&#x259;" horiz-adv-x="544" 
d="M429.5 445c44.333 -46.667 66.5 -109.999 66.5 -189.999c0 -52.667 -9.5 -98.834 -28.5 -138.501s-46 -70.167 -81 -91.5s-75.5 -32 -121.5 -32c-69.333 0 -123.333 21.667 -162 65s-58 104 -58 182v14h371c-1.33301 63.333 -16.166 111.5 -44.499 144.5
s-69.833 49.5 -124.5 49.5c-54 0 -109.333 -20 -166 -60l-28 59c24 21.333 53.833 38 89.5 50s71.5 18 107.5 18c75.333 0 135.166 -23.333 179.499 -70zM364.5 92.501c25.667 25 41.833 60.833 48.5 107.5h-292c4 -46.667 18.167 -82.5 42.5 -107.5s57.5 -37.5 99.5 -37.5
s75.833 12.5 101.5 37.5z" />
    <glyph glyph-name="uni02BB" unicode="&#x2bb;" horiz-adv-x="300" 
d="M201 669l-0.00195312 -83h-99v58c0 26.667 3.83301 50.5 11.5 71.5s20.834 40.833 39.501 59.5l37 -28c-12 -12.667 -20.667 -25.167 -26 -37.5s-8.66602 -25.833 -9.99902 -40.5h47z" />
    <glyph glyph-name="uni02BC" unicode="&#x2bc;" horiz-adv-x="300" 
d="M198 761l0.000976562 -58c0 -26.667 -3.83301 -50.5 -11.5 -71.5s-20.834 -40.833 -39.501 -59.5l-37 28c12.667 13.333 21.5 26 26.5 38s8.16699 25.333 9.5 40h-47v83h99z" />
    <glyph glyph-name="uni02BE" unicode="&#x2be;" horiz-adv-x="300" 
d="M223.5 730.5c19.667 -19 29.5 -42.501 29.5 -70.501s-9.83301 -51.667 -29.5 -71s-43.5 -29 -71.5 -29v49c14 0 25.5 4.83301 34.5 14.5s13.5 21.834 13.5 36.501c0 14 -4.5 25.833 -13.5 35.5s-20.5 14.5 -34.5 14.5v49c28 0 51.833 -9.5 71.5 -28.5z" />
    <glyph glyph-name="uni02BF" unicode="&#x2bf;" horiz-adv-x="300" 
d="M152 710c-14 0 -25.667 -4.83203 -35 -14.499s-14 -21.5 -14 -35.5c0 -14.667 4.5 -26.834 13.5 -36.501s20.833 -14.5 35.5 -14.5v-49c-28.667 0 -52.834 9.5 -72.501 28.5s-29.5 42.833 -29.5 71.5c0 28 9.83301 51.5 29.5 70.5s43.834 28.5 72.501 28.5v-49z" />
    <glyph glyph-name="circumflex" unicode="&#x2c6;" horiz-adv-x="300" 
d="M79 557h-75l119 204h57l119 -204h-75l-72 144z" />
    <glyph glyph-name="caron" unicode="&#x2c7;" horiz-adv-x="300" 
d="M224 761h75l-119 -204h-57l-119 204h75l73 -145z" />
    <glyph glyph-name="uni02C8" unicode="&#x2c8;" horiz-adv-x="300" 
d="M121 557v202h61v-202h-61z" />
    <glyph glyph-name="uni02C9" unicode="&#x2c9;" horiz-adv-x="300" 
d="M0 628v62h303v-62h-303z" />
    <glyph glyph-name="uni02CA" unicode="&#x2ca;" horiz-adv-x="300" 
d="M180 557h-57l100 204h94z" />
    <glyph glyph-name="uni02CB" unicode="&#x2cb;" horiz-adv-x="300" 
d="M123 557l-137 204h94l100 -204h-57z" />
    <glyph glyph-name="uni02CC" unicode="&#x2cc;" horiz-adv-x="300" 
d="M121 -273v203h61v-203h-61z" />
    <glyph glyph-name="breve" unicode="&#x2d8;" horiz-adv-x="300" 
d="M51 618.5c-30 21 -52 53.167 -66 96.5l51 22c14.667 -32 31.667 -55 51 -69s41 -21 65 -21c48.667 0 87 30 115 90l51 -22c-14 -43.333 -35.833 -75.5 -65.5 -96.5s-63.167 -31.5 -100.5 -31.5s-71 10.5 -101 31.5z" />
    <glyph glyph-name="dotaccent" unicode="&#x2d9;" horiz-adv-x="300" 
d="M102 705h99v-92h-99v92z" />
    <glyph glyph-name="ring" unicode="&#x2da;" horiz-adv-x="300" 
d="M79.5 587.5c-19.667 19 -29.5 42.833 -29.5 71.5c0 28 9.83301 51.667 29.5 71s43.834 29 72.501 29c28 0 51.833 -9.66699 71.5 -29s29.5 -43 29.5 -71s-9.83301 -51.667 -29.5 -71s-43.5 -29 -71.5 -29c-28.667 0 -52.834 9.5 -72.501 28.5zM186.5 622.5
c9 9.66699 13.5 21.834 13.5 36.501c0 14 -4.5 25.833 -13.5 35.5s-20.5 14.5 -34.5 14.5s-25.667 -4.83301 -35 -14.5s-14 -21.5 -14 -35.5c0 -14.667 4.5 -26.834 13.5 -36.501s20.833 -14.5 35.5 -14.5c14 0 25.5 4.83301 34.5 14.5z" />
    <glyph glyph-name="ogonek" unicode="&#x2db;" horiz-adv-x="300" 
d="M34 -165c-22 20 -33.002 45.333 -33.002 76c0 34 12 62.667 36 86s57.667 38.333 101 45l14 -32c-29.333 -6 -51.166 -16.667 -65.499 -32s-21.5 -34 -21.5 -56c0 -20 5.83301 -35.5 17.5 -46.5s27.834 -16.5 48.501 -16.5c18 0 37.333 5.66699 58 17l17 -48
c-26 -15.333 -55 -23 -87 -23c-34.667 0 -63 10 -85 30z" />
    <glyph glyph-name="tilde" unicode="&#x2dc;" horiz-adv-x="300" 
d="M13.5 689c16.333 20 38.166 30 65.499 30c14 0 27.333 -2.83301 40 -8.5s27.667 -13.834 45 -24.501c14 -8.66699 25.167 -15 33.5 -19s16.5 -6 24.5 -6c14.667 0 26.167 5.33301 34.5 16s12.5 23.667 12.5 39h45c0 -36.667 -8.16699 -65 -24.5 -85
s-38.166 -30 -65.499 -30c-14 0 -27.333 2.83301 -40 8.5s-27.667 13.834 -45 24.501c-14 8.66699 -25.167 15 -33.5 19s-16.5 6 -24.5 6c-14.667 0 -26.167 -5.33301 -34.5 -16s-12.5 -23.667 -12.5 -39h-45c0 36.667 8.16699 65 24.5 85z" />
    <glyph glyph-name="hungarumlaut" unicode="&#x2dd;" horiz-adv-x="300" 
d="M111 557h-41l46 204h75zM233 557h-41l45 204h76z" />
    <glyph glyph-name="gravecomb" unicode="&#x300;" horiz-adv-x="0" 
d="M-177 557l-137 204h94l100 -204h-57z" />
    <glyph glyph-name="acutecomb" unicode="&#x301;" horiz-adv-x="0" 
d="M-120 557h-57l100 204h94z" />
    <glyph glyph-name="uni0302" unicode="&#x302;" horiz-adv-x="0" 
d="M-221 557h-75l119 204h57l119 -204h-75l-72 144z" />
    <glyph glyph-name="tildecomb" unicode="&#x303;" horiz-adv-x="0" 
d="M-286.5 689c16.333 20 38.166 30 65.499 30c14 0 27.333 -2.83301 40 -8.5s27.667 -13.834 45 -24.501c14 -8.66699 25.167 -15 33.5 -19s16.5 -6 24.5 -6c14.667 0 26.167 5.33301 34.5 16s12.5 23.667 12.5 39h45c0 -36.667 -8.16699 -65 -24.5 -85
s-38.166 -30 -65.499 -30c-14 0 -27.333 2.83301 -40 8.5s-27.667 13.834 -45 24.501c-14 8.66699 -25.167 15 -33.5 19s-16.5 6 -24.5 6c-14.667 0 -26.167 -5.33301 -34.5 -16s-12.5 -23.667 -12.5 -39h-45c0 36.667 8.16699 65 24.5 85z" />
    <glyph glyph-name="uni0304" unicode="&#x304;" horiz-adv-x="0" 
d="M-300 628v62h303v-62h-303z" />
    <glyph glyph-name="uni0306" unicode="&#x306;" horiz-adv-x="0" 
d="M-249 618.5c-30 21 -52 53.167 -66 96.5l51 22c14.667 -32 31.667 -55 51 -69s41 -21 65 -21c48.667 0 87 30 115 90l51 -22c-14 -43.333 -35.833 -75.5 -65.5 -96.5s-63.167 -31.5 -100.5 -31.5s-71 10.5 -101 31.5z" />
    <glyph glyph-name="uni0307" unicode="&#x307;" horiz-adv-x="0" 
d="M-198 705h99v-92h-99v92z" />
    <glyph glyph-name="uni0308" unicode="&#x308;" horiz-adv-x="0" 
d="M-280 702h90v-86h-90v86zM-107 702h90v-86h-90v86z" />
    <glyph glyph-name="hookabovecomb" unicode="&#x309;" horiz-adv-x="0" 
d="M-120 557l-53.001 0.000976562v28c0 13.333 3.33301 24.833 10 34.5s16.334 20.5 29.001 32.5c9.33301 9.33301 15.833 16.333 19.5 21s5.5 10 5.5 16c0 8 -3.5 14.167 -10.5 18.5s-17.167 6.5 -30.5 6.5c-18 0 -37.667 -3.66699 -59 -11l-15 44c26 12 53 18 81 18
c31.333 0 55.833 -6.66699 73.5 -20s26.5 -30 26.5 -50c0 -15.333 -3.5 -27.666 -10.5 -36.999s-17.5 -20 -31.5 -32c-11.333 -8.66699 -20 -16.834 -26 -24.501s-9 -16.834 -9 -27.501v-17z" />
    <glyph glyph-name="uni030A" unicode="&#x30a;" horiz-adv-x="0" 
d="M-220.5 587.5c-19.667 19 -29.5 42.833 -29.5 71.5c0 28 9.83301 51.667 29.5 71s43.834 29 72.501 29c28 0 51.833 -9.66699 71.5 -29s29.5 -43 29.5 -71s-9.83301 -51.667 -29.5 -71s-43.5 -29 -71.5 -29c-28.667 0 -52.834 9.5 -72.501 28.5zM-113.5 622.5
c9 9.66699 13.5 21.834 13.5 36.501c0 14 -4.5 25.833 -13.5 35.5s-20.5 14.5 -34.5 14.5s-25.667 -4.83301 -35 -14.5s-14 -21.5 -14 -35.5c0 -14.667 4.5 -26.834 13.5 -36.501s20.833 -14.5 35.5 -14.5c14 0 25.5 4.83301 34.5 14.5z" />
    <glyph glyph-name="uni030B" unicode="&#x30b;" horiz-adv-x="0" 
d="M-189 557h-41l46 204h75zM-67 557h-41l45 204h76z" />
    <glyph glyph-name="uni030C" unicode="&#x30c;" horiz-adv-x="0" 
d="M-76 761h75l-119 -204h-57l-119 204h75l73 -145z" />
    <glyph glyph-name="uni030F" unicode="&#x30f;" horiz-adv-x="0" 
d="M-230 557l-80 204h76l45 -204h-41zM-108 557l-80 204h75l46 -204h-41z" />
    <glyph glyph-name="uni0311" unicode="&#x311;" horiz-adv-x="0" 
d="M-47.5 704c29.667 -20.667 51.5 -52.667 65.5 -96l-51 -22c-14.667 31.333 -31.5 54 -50.5 68s-40.5 21 -64.5 21s-45.667 -6.83301 -65 -20.5s-36.333 -36.5 -51 -68.5l-51 21c14 43.333 35.833 75.5 65.5 96.5s63.5 31.5 101.5 31.5c37.333 0 70.833 -10.333 100.5 -31
z" />
    <glyph glyph-name="uni0312" unicode="&#x312;" horiz-adv-x="0" 
d="M-99 669l-0.00195312 -83h-99v58c0 26.667 3.83301 50.5 11.5 71.5s20.834 40.833 39.501 59.5l37 -28c-12 -12.667 -20.667 -25.167 -26 -37.5s-8.66602 -25.833 -9.99902 -40.5h47z" />
    <glyph glyph-name="uni031B" unicode="&#x31b;" horiz-adv-x="0" 
d="M-149 474l0.000976562 22c41.333 0.666992 70.166 9.5 86.499 26.5s24.5 45.167 24.5 84.5v15h72v-26c0 -44 -12.333 -79.333 -37 -106s-59.667 -41.667 -105 -45z" />
    <glyph glyph-name="dotbelowcomb" unicode="&#x323;" horiz-adv-x="0" 
d="M-195 -95h93v-89h-93v89z" />
    <glyph glyph-name="uni0324" unicode="&#x324;" horiz-adv-x="0" 
d="M-280 -96h90v-87h-90v87zM-107 -96h90v-87h-90v87z" />
    <glyph glyph-name="uni0326" unicode="&#x326;" horiz-adv-x="0" 
d="M-99 -73l0.000976562 -58c0 -26.667 -3.83301 -50.5 -11.5 -71.5s-21.167 -40.833 -40.5 -59.5l-37 28c12.667 13.333 21.667 26 27 38s8.66602 25.333 9.99902 40h-47v83h99z" />
    <glyph glyph-name="uni0327" unicode="&#x327;" horiz-adv-x="0" 
d="M-52.5 -59c15 -12 22.5 -29.333 22.5 -52c0 -24.667 -10.333 -44.834 -31 -60.501s-49.334 -23.5 -86.001 -23.5c-14 0 -29.333 1.66699 -46 5s-31 8 -43 14l13 44c24 -9.33301 49.333 -14 76 -14c18 0 31.833 3 41.5 9s14.5 14.667 14.5 26
c0 8.66699 -3 15.334 -9 20.001s-14.667 7 -26 7c-15.333 0 -30.666 -3 -45.999 -9l-20 16l11 97h57l-7 -63c10.667 1.33301 18.667 2 24 2c21.333 0 39.5 -6 54.5 -18z" />
    <glyph glyph-name="uni0328" unicode="&#x328;" horiz-adv-x="0" 
d="M-266 -165c-22 20 -33.002 45.333 -33.002 76c0 34 12 62.667 36 86s57.667 38.333 101 45l14 -32c-29.333 -6 -51.166 -16.667 -65.499 -32s-21.5 -34 -21.5 -56c0 -20 5.83301 -35.5 17.5 -46.5s27.834 -16.5 48.501 -16.5c18 0 37.333 5.66699 58 17l17 -48
c-26 -15.333 -55 -23 -87 -23c-34.667 0 -63 10 -85 30z" />
    <glyph glyph-name="uni032E" unicode="&#x32e;" horiz-adv-x="0" 
d="M-249 -182c-30 20.667 -52 52.667 -66 96l51 22c14.667 -32 31.667 -54.833 51 -68.5s41 -20.5 65 -20.5s45.5 7 64.5 21s35.833 36.667 50.5 68l51 -21c-14 -43.333 -35.833 -75.5 -65.5 -96.5s-63.167 -31.5 -100.5 -31.5s-71 10.333 -101 31z" />
    <glyph glyph-name="uni0331" unicode="&#x331;" horiz-adv-x="0" 
d="M-300 -170v60h303v-60h-303z" />
    <glyph glyph-name="uni0335" unicode="&#x335;" horiz-adv-x="0" 
d="M-300 220v56h303v-56h-303z" />
    <glyph glyph-name="uni0394" unicode="&#x394;" horiz-adv-x="728" 
d="M399 712l298 -662v-50h-665v50l298 662h69zM365 614l-241 -544h481z" />
    <glyph glyph-name="Sigma" unicode="&#x3a3;" horiz-adv-x="588" 
d="M545 712v-69h-406l244 -349v-57l-243 -349h405v-70h-504v61l269 386l-269 387v60h504z" />
    <glyph glyph-name="uni03A9" unicode="&#x3a9;" horiz-adv-x="787" 
d="M685.5 236c-29.667 -56.667 -75.502 -112.334 -137.502 -167.001h175v-69h-263v66c60.667 55.333 106.667 112.5 138 171.5s47 117.167 47 174.5c0 75.333 -22.167 133.833 -66.5 175.5s-106.166 62.5 -185.499 62.5s-141.166 -21 -185.499 -63
s-66.5 -100.333 -66.5 -175c0 -58 15.667 -116.333 47 -175s77.666 -115.667 138.999 -171v-66h-263v69h175c-62 54.667 -108 110.334 -138 167.001s-45 116 -45 178s13.833 116.167 41.5 162.5s66.834 82 117.501 107s110 37.5 178 37.5s127.5 -12.5 178.5 -37.5
s90.167 -60.667 117.5 -107s41 -100.5 41 -162.5s-14.833 -121.333 -44.5 -178z" />
    <glyph glyph-name="uni03BC" unicode="&#x3bc;" horiz-adv-x="577" 
d="M499 503v-503.001h-79v87c-16 -30.667 -38.333 -54 -67 -70s-61 -24 -97 -24c-40.667 0 -74 9 -100 27v-236h-81v719h81v-310c0 -45.333 9.33301 -78.666 28 -99.999s47 -32 85 -32c44.667 0 80.667 14.5 108 43.5s41 67.167 41 114.5v284h81z" />
    <glyph glyph-name="pi" unicode="&#x3c0;" horiz-adv-x="593" 
d="M589 58l-7.00098 -64.998l-46 3c-63.333 4 -110 21.5 -140 52.5s-45 76.833 -45 137.5v253h-162c-1.33301 -86 -7.66602 -164.667 -18.999 -236s-28.333 -139 -51 -203h-86c46 133.333 71 279.666 75 438.999h-103v64h550v-64h-123v-262
c0 -36.667 9.16699 -64.334 27.5 -83.001s45.833 -29.667 82.5 -33z" />
    <glyph glyph-name="uni1E08" unicode="&#x1e08;" horiz-adv-x="684" 
d="M552 926l-134 -153h-57l102 153h89zM534 17c-38.667 -15.333 -81.0029 -23.665 -127.003 -24.998l-4 -35c10.667 1.33301 18.667 2 24 2c21.333 0 39.5 -6 54.5 -18s22.5 -29.333 22.5 -52c0 -24.667 -10.333 -44.834 -31 -60.501s-49.334 -23.5 -86.001 -23.5
c-14 0 -29.333 1.66699 -46 5s-31 8 -43 14l13 44c24 -9.33301 49.333 -14 76 -14c18 0 31.833 3 41.5 9s14.5 14.667 14.5 26c0 8.66699 -3 15.334 -9 20.001s-14.667 7 -26 7c-15.333 0 -30.666 -3 -45.999 -9l-20 16l8 71c-59.333 6 -110.666 24.5 -153.999 55.5
s-76.5 72.667 -99.5 125s-34.5 113.166 -34.5 182.499c0 74.667 13.333 139.167 40 193.5s64.834 96.166 114.501 125.499s108.167 44 175.5 44c49.333 0 94.5 -7.5 135.5 -22.5s76.5 -37.5 106.5 -67.5l-31 -63c-34 29.333 -67.5 50.333 -100.5 63s-69.5 19 -109.5 19
c-78 0 -138.5 -25.333 -181.5 -76s-64.5 -122.667 -64.5 -216c0 -94 21.333 -166.5 64 -217.5s103.334 -76.5 182.001 -76.5c40 0 76.5 6.33301 109.5 19s66.5 33.667 100.5 63l31 -63c-28 -28 -61.333 -49.667 -100 -65z" />
    <glyph glyph-name="uni1E09" unicode="&#x1e09;" horiz-adv-x="495" 
d="M454 772l-137 -204h-57l100 204h94zM395.5 12.5c-29.667 -11.667 -60.5029 -18.167 -92.5029 -19.5l-4 -36c10.667 1.33301 18.667 2 24 2c21.333 0 39.5 -6 54.5 -18s22.5 -29.333 22.5 -52c0 -24.667 -10.333 -44.834 -31 -60.501s-49.334 -23.5 -86.001 -23.5
c-14 0 -29.333 1.66699 -46 5s-31 8 -43 14l13 44c24 -9.33301 49.333 -14 76 -14c18 0 31.833 3 41.5 9s14.5 14.667 14.5 26c0 8.66699 -3 15.334 -9 20.001s-14.667 7 -26 7c-15.333 0 -30.666 -3 -45.999 -9l-20 16l8 73
c-61.333 8.66699 -109.666 35.834 -144.999 81.501s-53 103.834 -53 174.501c0 52 10 97.833 30 137.5s48.5 70.5 85.5 92.5s80.167 33 129.5 33c34 0 66.833 -5.83301 98.5 -17.5s57.834 -27.834 78.501 -48.501l-27 -60c-25.333 20 -49.833 34.667 -73.5 44
s-47.834 14 -72.501 14c-51.333 0 -91.666 -17.167 -120.999 -51.5s-44 -82.166 -44 -143.499c0 -60.667 14.5 -107.834 43.5 -141.501s69.5 -50.5 121.5 -50.5c24.667 0 48.834 4.66699 72.501 14s48.167 24 73.5 44l27 -60c-20 -18.667 -44.833 -33.834 -74.5 -45.501z
" />
    <glyph glyph-name="uni1E0C" unicode="&#x1e0c;" horiz-adv-x="746" 
d="M88 712h239c114 0 202.167 -30.833 264.5 -92.5s93.5 -149.167 93.5 -262.5c0 -114 -31.167 -202 -93.5 -264s-150.5 -93 -264.5 -93h-239v712zM322 70c92 0 161.167 24 207.5 72s69.5 119.667 69.5 215c0 190 -92.333 285 -277 285h-152v-572h152zM326 -95h93v-89h-93
v89z" />
    <glyph glyph-name="uni1E0D" unicode="&#x1e0d;" 
d="M521 736l0.00292969 -736h-80v91c-14.667 -31.333 -36.834 -55.5 -66.501 -72.5s-64.167 -25.5 -103.5 -25.5c-44 0 -82.833 11 -116.5 33s-59.834 52.833 -78.501 92.5s-28 85.5 -28 137.5s9.16699 97.5 27.5 136.5s44.5 69.167 78.5 90.5s73 32 117 32
c39.333 0 73.666 -8.5 102.999 -25.5s51.333 -40.833 66 -71.5v318h81zM401.003 110.5c26.667 33.667 40 81.5 40 143.5c0 61.333 -13.333 108.833 -40 142.5s-64.667 50.5 -114 50.5s-87.833 -16.667 -115.5 -50s-41.5 -80.333 -41.5 -141
c0 -62 13.833 -110.167 41.5 -144.5s66.167 -51.5 115.5 -51.5s87.333 16.833 114 50.5zM255.003 -95h93v-89h-93v89z" />
    <glyph glyph-name="uni1E0E" unicode="&#x1e0e;" horiz-adv-x="746" 
d="M88 712h239c114 0 202.167 -30.833 264.5 -92.5s93.5 -149.167 93.5 -262.5c0 -114 -31.167 -202 -93.5 -264s-150.5 -93 -264.5 -93h-239v712zM322 70c92 0 161.167 24 207.5 72s69.5 119.667 69.5 215c0 190 -92.333 285 -277 285h-152v-572h152zM221 -170v60h303v-60
h-303z" />
    <glyph glyph-name="uni1E0F" unicode="&#x1e0f;" 
d="M521 736l0.00292969 -736h-80v91c-14.667 -31.333 -36.834 -55.5 -66.501 -72.5s-64.167 -25.5 -103.5 -25.5c-44 0 -82.833 11 -116.5 33s-59.834 52.833 -78.501 92.5s-28 85.5 -28 137.5s9.16699 97.5 27.5 136.5s44.5 69.167 78.5 90.5s73 32 117 32
c39.333 0 73.666 -8.5 102.999 -25.5s51.333 -40.833 66 -71.5v318h81zM401.003 110.5c26.667 33.667 40 81.5 40 143.5c0 61.333 -13.333 108.833 -40 142.5s-64.667 50.5 -114 50.5s-87.833 -16.667 -115.5 -50s-41.5 -80.333 -41.5 -141
c0 -62 13.833 -110.167 41.5 -144.5s66.167 -51.5 115.5 -51.5s87.333 16.833 114 50.5zM150.003 -170v60h303v-60h-303z" />
    <glyph glyph-name="uni1E14" unicode="&#x1e14;" horiz-adv-x="588" 
d="M88 0v712h450v-68h-369v-248h349v-69h-349v-259h369v-68h-450zM175 819v62h303v-62h-303zM298 935l-134 153h89l102 -153h-57z" />
    <glyph glyph-name="uni1E15" unicode="&#x1e15;" horiz-adv-x="544" 
d="M499 254l-368.999 0.000976562c0.666992 -64 15.5 -112.333 44.5 -145s71.167 -49 126.5 -49c58.667 0 112.667 19.667 162 59l27 -59c-22 -20.667 -50.167 -37 -84.5 -49s-69.5 -18 -105.5 -18c-78.667 0 -140.334 23.167 -185.001 69.5s-67 109.833 -67 190.5
c0 51.333 10 96.833 30 136.5s48 70.5 84 92.5s77 33 123 33c66.667 0 119 -21.833 157 -65.5s57 -103.834 57 -180.501v-15zM183.501 414.001c-26.333 -25.333 -43.167 -61 -50.5 -107h293c-4 47.333 -17.833 83.333 -41.5 108s-56.5 37 -98.5 37
s-76.167 -12.667 -102.5 -38zM133 639.001v62h303v-62h-303zM256 764.001l-137 204h94l100 -204h-57z" />
    <glyph glyph-name="uni1E16" unicode="&#x1e16;" horiz-adv-x="588" 
d="M88 0v712h450v-68h-369v-248h349v-69h-349v-259h369v-68h-450zM175 819v62h303v-62h-303zM355 935h-57l102 153h89z" />
    <glyph glyph-name="uni1E17" unicode="&#x1e17;" horiz-adv-x="544" 
d="M499 254l-368.999 0.000976562c0.666992 -64 15.5 -112.333 44.5 -145s71.167 -49 126.5 -49c58.667 0 112.667 19.667 162 59l27 -59c-22 -20.667 -50.167 -37 -84.5 -49s-69.5 -18 -105.5 -18c-78.667 0 -140.334 23.167 -185.001 69.5s-67 109.833 -67 190.5
c0 51.333 10 96.833 30 136.5s48 70.5 84 92.5s77 33 123 33c66.667 0 119 -21.833 157 -65.5s57 -103.834 57 -180.501v-15zM183.501 414.001c-26.333 -25.333 -43.167 -61 -50.5 -107h293c-4 47.333 -17.833 83.333 -41.5 108s-56.5 37 -98.5 37
s-76.167 -12.667 -102.5 -38zM133 639.001v62h303v-62h-303zM313 764.001h-57l100 204h94z" />
    <glyph glyph-name="uni1E1C" unicode="&#x1e1c;" horiz-adv-x="588" 
d="M227 810.5c-28.667 17 -50.333 44.167 -65 81.5l51 22c15.333 -26.667 32 -45.167 50 -55.5s39.333 -15.5 64 -15.5s45.834 5.16699 63.501 15.5s34.167 28.833 49.5 55.5l51 -22c-14.667 -37.333 -36.334 -64.5 -65.001 -81.5s-61.667 -25.5 -99 -25.5
c-38 0 -71.333 8.5 -100 25.5zM169.001 644v-248h349v-69h-349v-259h369v-68h-192l-5 -43c10.667 1.33301 18.667 2 24 2c21.333 0 39.5 -6 54.5 -18s22.5 -29.333 22.5 -52c0 -24.667 -10.333 -44.834 -31 -60.501s-49.334 -23.5 -86.001 -23.5
c-14 0 -29.333 1.66699 -46 5s-31 8 -43 14l13 44c24 -9.33301 49.333 -14 76 -14c18 0 31.833 3 41.5 9s14.5 14.667 14.5 26c0 8.66699 -3 15.334 -9 20.001s-14.667 7 -26 7c-15.333 0 -30.666 -3 -45.999 -9l-20 16l9 77h-201v712h450v-68h-369z" />
    <glyph glyph-name="uni1E1D" unicode="&#x1e1d;" horiz-adv-x="544" 
d="M184 629.5c-30 21 -52 53.167 -66 96.5l51 22c14.667 -32 31.667 -55 51 -69s41 -21 65 -21c48.667 0 87 30 115 90l51 -22c-14 -43.333 -35.833 -75.5 -65.5 -96.5s-63.167 -31.5 -100.5 -31.5s-71 10.5 -101 31.5zM499 254l-368.999 0.000976562
c0.666992 -64 15.5 -112.333 44.5 -145s71.167 -49 126.5 -49c58.667 0 112.667 19.667 162 59l27 -59c-20.667 -18.667 -46.334 -34 -77.001 -46s-62.667 -19 -96 -21l-4 -36c10.667 1.33301 18.667 2 24 2c21.333 0 39.5 -6 54.5 -18s22.5 -29.333 22.5 -52
c0 -24.667 -10.333 -44.834 -31 -60.501s-49.334 -23.5 -86.001 -23.5c-14 0 -29.333 1.66699 -46 5s-31 8 -43 14l13 44c24 -9.33301 49.333 -14 76 -14c18 0 31.833 3 41.5 9s14.5 14.667 14.5 26c0 8.66699 -3 15.334 -9 20.001s-14.667 7 -26 7
c-15.333 0 -30.666 -3 -45.999 -9l-20 16l8 72c-66.667 8 -118.667 34.5 -156 79.5s-56 104.5 -56 178.5c0 51.333 10 96.833 30 136.5s48 70.5 84 92.5s77 33 123 33c66.667 0 119 -21.833 157 -65.5s57 -103.834 57 -180.501v-15zM183.501 414.001
c-26.333 -25.333 -43.167 -61 -50.5 -107h293c-4 47.333 -17.833 83.333 -41.5 108s-56.5 37 -98.5 37s-76.167 -12.667 -102.5 -38z" />
    <glyph glyph-name="uni1E20" unicode="&#x1e20;" horiz-adv-x="731" 
d="M651 371v-329.999c-28 -14.667 -64.667 -26.5 -110 -35.5s-91.333 -13.5 -138 -13.5c-70.667 0 -131.667 14.5 -183 43.5s-90.5 70.833 -117.5 125.5s-40.5 120 -40.5 196c0 75.333 13.5 140.166 40.5 194.499s65.667 96 116 125s109.833 43.5 178.5 43.5
c50 0 95.833 -7.5 137.5 -22.5s77.5 -37.5 107.5 -67.5l-32 -63c-34.667 29.333 -68.5 50.5 -101.5 63.5s-70.167 19.5 -111.5 19.5c-80.667 0 -142.5 -25.167 -185.5 -75.5s-64.5 -122.833 -64.5 -217.5c0 -96.667 22 -170.167 66 -220.5s108 -75.5 192 -75.5
c59.333 0 116.333 9.33301 171 28v217h-177v65h252zM244 819.001v62h303v-62h-303z" />
    <glyph glyph-name="uni1E21" unicode="&#x1e21;" horiz-adv-x="604" 
d="M526 503v-499.002c0 -74.667 -19.167 -131.167 -57.5 -169.5s-94.833 -57.5 -169.5 -57.5c-76.667 0 -142.667 17.333 -198 52l14 66c32 -18 62.167 -31 90.5 -39s59.5 -12 93.5 -12c48.667 0 85.334 12.833 110.001 38.5s37 63.834 37 114.501v119
c-15.333 -32 -37.833 -56.833 -67.5 -74.5s-64.834 -26.5 -105.501 -26.5c-44 0 -83.167 10.333 -117.5 31s-60.833 50 -79.5 88s-28 81.667 -28 131s9.33301 93 28 131s45.167 67.333 79.5 88s73.5 31 117.5 31c40 0 74.833 -8.66699 104.5 -26
s52.167 -41.666 67.5 -72.999v87h81zM403.5 131.498c27.667 32.333 41.5 76.833 41.5 133.5s-13.833 101.167 -41.5 133.5s-65.834 48.5 -114.501 48.5c-49.333 0 -88.166 -16.167 -116.499 -48.5s-42.5 -76.833 -42.5 -133.5s14.167 -101.167 42.5 -133.5
s67.166 -48.5 116.499 -48.5c48.667 0 86.834 16.167 114.501 48.5zM152 638.998v62h303v-62h-303z" />
    <glyph glyph-name="uni1E24" unicode="&#x1e24;" horiz-adv-x="766" 
d="M596 712h82v-712h-82v327h-427v-327h-81v712h81v-316h427v316zM336 -95h93v-89h-93v89z" />
    <glyph glyph-name="uni1E25" unicode="&#x1e25;" horiz-adv-x="585" 
d="M510 316v-316h-81v312c0 46.667 -9.33301 80.834 -28 102.501s-48 32.5 -88 32.5c-46.667 0 -84 -14.333 -112 -43s-42 -67.334 -42 -116.001v-288h-81v736h81v-315c16 30.667 38.833 54 68.5 70s63.5 24 101.5 24c120.667 0 181 -66.333 181 -199zM247 -95h93v-89h-93
v89z" />
    </font>
</defs>
</svg>
