<?xml version="1.0" standalone="no"?>
<!DOCTYPE svg PUBLIC "-//W3C//DTD SVG 1.1//EN" "http://www.w3.org/Graphics/SVG/1.1/DTD/svg11.dtd" >
<svg>
<metadata>
Created by FontForge 20090914 at Sat Jun 30 11:21:00 2018
 By www-data
Copyright 2016 The Muli Project Authors (contact@sansoxygen.com)
</metadata>
<defs>
<font id="Muli-ExtraBold" horiz-adv-x="0" >
  <font-face 
    font-family="Muli ExtraBold"
    font-weight="800"
    font-stretch="normal"
    units-per-em="1000"
    panose-1="0 0 9 0 0 0 0 0 0 0"
    ascent="800"
    descent="-200"
    x-height="506"
    cap-height="712"
    bbox="-357 -278.001 1336 1092"
    underline-thickness="50"
    underline-position="-50"
    unicode-range="U+000D-U+FB02"
  />
<missing-glyph horiz-adv-x="476" 
d="M390 736v-952h-301v952h301zM317 672h-157v-31h62v-35h-63v-32h158v32h-63v35h63v31zM254 549h-95v-99h158v33h-63v66zM222 517v-34h-32v34h32zM317 425h-158v-32h63v-35h-63v-31h95v66h63v32zM317 368h-31v-63h-127v-33h158v96zM317 251h-95v-53h32v22h32v-45h-96v76
h-31v-107h158v107zM317 87h-158v-108h158v108zM286 55v-44h-96v44h96zM317 -43h-158v-31h67l-67 -45v-31h158v31h-97l67 45h30v31z" />
    <glyph glyph-name="fi" unicode="fi" horiz-adv-x="658" 
d="M439 750h165v-145h-165v145zM251 507l346 0.000976562v-507h-152v394h-194v-394h-151v394h-96v113h96v41c0 48 7.5 85.667 22.5 113s39.5 47.166 73.5 59.499s80.333 18.5 139 18.5h40v-109h-24c-29.333 0 -50.833 -2.33301 -64.5 -7s-23 -13.5 -28 -26.5
s-7.5 -33.5 -7.5 -61.5v-28z" />
    <glyph glyph-name="fl" unicode="fl" horiz-adv-x="659" 
d="M271 597.5c-14 -13 -21.002 -33.833 -21.002 -62.5v-28h106v-113h-106v-394h-151v394h-95v113h95v32c0 64 16.333 113.667 49 149s80 53 142 53c34.667 0 63.334 -4.33301 86.001 -13v-118c-19.333 4.66699 -35.666 7 -48.999 7c-23.333 0 -42 -6.5 -56 -19.5zM445.998 0
v736h151v-736h-151z" />
    <glyph glyph-name=".notdef" horiz-adv-x="476" 
d="M390 736v-952h-301v952h301zM317 672h-157v-31h62v-35h-63v-32h158v32h-63v35h63v31zM254 549h-95v-99h158v33h-63v66zM222 517v-34h-32v34h32zM317 425h-158v-32h63v-35h-63v-31h95v66h63v32zM317 368h-31v-63h-127v-33h158v96zM317 251h-95v-53h32v22h32v-45h-96v76
h-31v-107h158v107zM317 87h-158v-108h158v108zM286 55v-44h-96v44h96zM317 -43h-158v-31h67l-67 -45v-31h158v31h-97l67 45h30v31z" />
    <glyph glyph-name="NULL" 
 />
    <glyph glyph-name="NULL" 
 />
    <glyph glyph-name="nonmarkingreturn" unicode="&#xd;" horiz-adv-x="281" 
 />
    <glyph glyph-name="space" unicode=" " horiz-adv-x="281" 
 />
    <glyph glyph-name="exclam" unicode="!" horiz-adv-x="262" 
d="M85 229l-48 484l187 -1l-47 -483h-92zM49 161h163v-161h-163v161z" />
    <glyph glyph-name="quotedbl" unicode="&#x22;" horiz-adv-x="473" 
d="M79 411l-38 301h174l-35 -301h-101zM295 411l-38 301h174l-35 -301h-101z" />
    <glyph glyph-name="numbersign" unicode="#" horiz-adv-x="606" 
d="M557 460h-78l-39 -199h94v-94h-113l-33 -167h-101l33 167h-109l-33 -167h-101l33 167h-60v94h79l39 199h-96v93h115l31 159h101l-31 -159h109l31 159h101l-31 -159h59v-93zM339 261l39 199h-109l-39 -199h109z" />
    <glyph glyph-name="dollar" unicode="$" horiz-adv-x="600" 
d="M522 69.5c-37.333 -37.667 -87.667 -61.8311 -151 -72.498v-113h-122v109c-92 8.66699 -165.667 34.667 -221 78l51 112c54.667 -40 115 -63 181 -69v180c-45.333 12 -83.333 25 -114 39s-56.5 34.5 -77.5 61.5s-31.5 62.833 -31.5 107.5c0 54 19.5 100.5 58.5 139.5
s90.167 63.833 153.5 74.5v112h122v-111c38 -5.33301 74 -14.5 108 -27.5s61.667 -29.167 83 -48.5l-51 -112c-48 34.667 -98 56.667 -150 66v-186c44 -10.667 81 -22.834 111 -36.501s55.167 -33.834 75.5 -60.501s30.5 -61.667 30.5 -105
c0 -54 -18.667 -99.833 -56 -137.5zM210.499 467.503c11.667 -11.667 28.167 -21.5 49.5 -29.5v154c-21.333 -6 -37.833 -15.833 -49.5 -29.5s-17.5 -30.5 -17.5 -50.5c0 -18 5.83301 -32.833 17.5 -44.5zM421.999 200.003c0 15.333 -5.16699 28.167 -15.5 38.5
s-25.5 19.5 -45.5 27.5v-144c40.667 12 61 38 61 78z" />
    <glyph glyph-name="percent" unicode="%" horiz-adv-x="964" 
d="M86 344c-32.667 37.333 -49 91.668 -49 163.001c0 69.333 16.333 122.666 49 159.999s77.667 56 135 56c58 0 103.333 -18.667 136 -56s49 -91 49 -161c0 -70.667 -16.333 -124.667 -49 -162s-78 -56 -136 -56c-57.333 0 -102.333 18.667 -135 56zM340 0.00195312h-130
l413 712h130zM267.5 411.502c9.66699 19 14.5 50.5 14.5 94.5c0 43.333 -5 74.5 -15 93.5s-25.333 28.5 -46 28.5c-20 0 -34.833 -9.5 -44.5 -28.5s-14.5 -50.167 -14.5 -93.5c0 -44 4.66699 -75.5 14 -94.5s24.333 -28.5 45 -28.5c21.333 0 36.833 9.5 46.5 28.5z
M606.5 49.002c-32.333 37.333 -48.5 91.667 -48.5 163c0 70 16.167 123.5 48.5 160.5s77.166 55.5 134.499 55.5c58.667 0 104.167 -18.5 136.5 -55.5s48.5 -90.833 48.5 -161.5s-16.167 -124.667 -48.5 -162s-77.833 -56 -136.5 -56c-57.333 0 -102.166 18.667 -134.499 56
zM787.5 116.503c9.66699 19 14.5 50.5 14.5 94.5c0 43.333 -5 74.5 -15 93.5s-25.333 28.5 -46 28.5c-20 0 -34.833 -9.5 -44.5 -28.5s-14.5 -50.167 -14.5 -93.5c0 -44 4.66699 -75.5 14 -94.5s24.333 -28.5 45 -28.5c21.333 0 36.833 9.5 46.5 28.5z" />
    <glyph glyph-name="ampersand" unicode="&#x26;" horiz-adv-x="698" 
d="M653 -10c-62.667 19.333 -114.003 46.6641 -154.003 81.9971c-62.667 -53.333 -133.667 -80 -213 -80c-50 0 -94.167 8.33301 -132.5 25s-68.166 40.167 -89.499 70.5s-32 64.833 -32 103.5c0 42.667 11.333 80.334 34 113.001s58.334 63 107.001 91
c-46 48.667 -69 98.667 -69 150c0 34 8.66699 64.167 26 90.5s41.5 46.833 72.5 61.5s66.833 22 107.5 22c56.667 0 102 -14.5 136 -43.5s51 -67.833 51 -116.5c0 -37.333 -10.333 -70.666 -31 -99.999s-53 -56.666 -97 -81.999l123 -121c25.333 54 40 113.667 44 179h125
c-5.33301 -102.667 -31.666 -191.667 -78.999 -267c41.333 -35.333 89 -60 143 -74zM258.997 598.498c-13.333 -13 -20 -30.502 -20 -52.502c0 -13.333 3.83301 -26.666 11.5 -39.999s21.5 -30.666 41.5 -51.999c30.667 16.667 52.5 32.667 65.5 48s19.5 32.333 19.5 51
c0 20 -6 35.833 -18 47.5s-27.667 17.5 -47 17.5c-22 0 -39.667 -6.5 -53 -19.5zM208.997 131.996c20 -16.667 47.001 -24.999 81.001 -24.999c45.333 0 87 16 125 48l-164 162c-24.667 -16 -42.834 -33.5 -54.501 -52.5s-17.5 -40.5 -17.5 -64.5
c0 -28.667 10 -51.334 30 -68.001z" />
    <glyph glyph-name="quotesingle" unicode="'" horiz-adv-x="257" 
d="M79 411l-38 301h174l-35 -301h-101z" />
    <glyph glyph-name="parenleft" unicode="(" horiz-adv-x="378" 
d="M130 45c-20 69.333 -29.998 143 -29.998 221s10.167 152.667 30.5 224s54.166 145.333 101.499 222h120c-36.667 -92 -61.834 -171.667 -75.501 -239s-20.5 -136.333 -20.5 -207c0 -70 6.83301 -138.667 20.5 -206s38.167 -148 73.5 -242h-119
c-47.333 82 -81 157.667 -101 227z" />
    <glyph glyph-name="parenright" unicode=")" horiz-adv-x="378" 
d="M27 -182c36 93.333 60.835 173.833 74.502 241.5s20.5 136.5 20.5 206.5c0 70.667 -6.83301 139.667 -20.5 207s-38.834 147 -75.501 239h119c47.333 -76.667 81.166 -150.667 101.499 -222s30.5 -146 30.5 -224s-10 -151.667 -30 -221s-53.667 -145 -101 -227h-119z" />
    <glyph glyph-name="asterisk" unicode="*" horiz-adv-x="459" 
d="M154 336l-83 61l88 108l-136 35l33 99l129 -51l-7 139h103l-9 -138l131 50l32 -99l-136 -35l89 -108l-84 -61l-75 117z" />
    <glyph glyph-name="plus" unicode="+" horiz-adv-x="600" 
d="M546 341v-103h-194v-195h-104v195h-194v103h194v195h104v-195h194z" />
    <glyph glyph-name="comma" unicode="," horiz-adv-x="262" 
d="M212 161l0.000976562 -103c0 -39.333 -6.83301 -74.833 -20.5 -106.5s-36.834 -63.5 -69.501 -95.5l-59 46c32.667 34 53 66.667 61 98h-75v161h163z" />
    <glyph glyph-name="hyphen" unicode="-" horiz-adv-x="444" 
d="M67 211v119h311v-119h-311z" />
    <glyph glyph-name="period" unicode="." horiz-adv-x="262" 
d="M49 161h163v-161h-163v161z" />
    <glyph glyph-name="slash" unicode="/" horiz-adv-x="333" 
d="M97 -61h-124l262 816h125z" />
    <glyph glyph-name="zero" unicode="0" horiz-adv-x="600" 
d="M102.5 85c-45.667 62.667 -68.5 153.334 -68.5 272.001c0 117.333 22.833 207 68.5 269s111.5 93 197.5 93s151.833 -31 197.5 -93s68.5 -151.667 68.5 -269c0 -118.667 -22.833 -209.334 -68.5 -272.001s-111.5 -94 -197.5 -94s-151.833 31.333 -197.5 94zM386 169
c18 38.667 27 101.334 27 188.001c0 84.667 -9 146.167 -27 184.5s-46.667 57.5 -86 57.5s-68 -19.167 -86 -57.5s-27 -99.833 -27 -184.5c0 -86.667 9 -149.334 27 -188.001s46.667 -58 86 -58s68 19.333 86 58z" />
    <glyph glyph-name="one" unicode="1" horiz-adv-x="600" 
d="M413 125h154v-125h-464v125h154v413l-144 -85v137l209 122h91v-587z" />
    <glyph glyph-name="two" unicode="2" horiz-adv-x="601" 
d="M554 125l-0.00195312 -125h-489v115l237 252c49.333 53.333 74 102 74 146c0 28 -8.16699 49.167 -24.5 63.5s-40.166 21.5 -71.499 21.5c-60.667 0 -123.667 -23 -189 -69l-50 112c28.667 24.667 65.334 44.167 110.001 58.5s90 21.5 136 21.5
c74 0 132.833 -17.833 176.5 -53.5s65.5 -83.5 65.5 -143.5c0 -41.333 -8.5 -79.5 -25.5 -114.5s-45.5 -73.833 -85.5 -116.5l-161 -168h297z" />
    <glyph glyph-name="three" unicode="3" horiz-adv-x="600" 
d="M513.5 303.5c22.333 -29.667 33.498 -66.1631 33.498 -109.496c0 -62.667 -23.667 -112 -71 -148s-111.666 -54 -192.999 -54c-49.333 0 -96.666 7.16699 -141.999 21.5s-82 33.833 -110 58.5l50 112c63.333 -46 128.333 -69 195 -69c43.333 0 74.833 7.5 94.5 22.5
s29.5 38.833 29.5 71.5c0 31.333 -9.83301 54.166 -29.5 68.499s-51.167 21.5 -94.5 21.5h-102v122h85c41.333 0 72 7.16699 92 21.5s30 36.166 30 65.499s-8.83301 51.666 -26.5 66.999s-42.834 23 -75.501 23c-30.667 0 -62 -5.83301 -94 -17.5
s-63.333 -28.834 -94 -51.501l-50 112c28.667 24.667 65.334 44.167 110.001 58.5s90.667 21.5 138 21.5c48 0 90.167 -8 126.5 -24s64.333 -38.333 84 -67s29.5 -62.334 29.5 -101.001s-9.66699 -72.167 -29 -100.5s-46.666 -49.166 -81.999 -62.499
c41.333 -12 73.166 -32.833 95.499 -62.5z" />
    <glyph glyph-name="four" unicode="4" horiz-adv-x="600" 
d="M582 251v-121h-97v-130h-153v130h-299v116l327 466h125v-461h97zM176 251h156v224z" />
    <glyph glyph-name="five" unicode="5" horiz-adv-x="600" 
d="M460.5 432.5c34.333 -19 60.999 -45.832 79.999 -80.499s28.5 -74.667 28.5 -120c0 -48 -11.167 -90.167 -33.5 -126.5s-54.333 -64.333 -96 -84s-90.167 -29.5 -145.5 -29.5c-45.333 0 -90.166 7.33301 -134.499 22s-80.166 34 -107.499 58l50 112
c63.333 -46 128 -69 194 -69c83.333 0 125 37 125 111c0 35.333 -10.833 63.166 -32.5 83.499s-51.167 30.5 -88.5 30.5c-23.333 0 -46.833 -4.33301 -70.5 -13s-44.834 -20.667 -63.501 -36h-89v421h457v-120h-305v-159c31.333 18.667 69.333 28 114 28
c44 0 83.167 -9.5 117.5 -28.5z" />
    <glyph glyph-name="six" unicode="6" horiz-adv-x="600" 
d="M463.5 433.5c33 -19.667 58.668 -46.998 77.001 -81.998s27.5 -74.833 27.5 -119.5c0 -46 -10.5 -87.333 -31.5 -124s-50 -65.334 -87 -86.001s-78.833 -31 -125.5 -31c-92.667 0 -164 30.667 -214 92s-75 148.666 -75 261.999c0 78 12 145.167 36 201.5
s58.333 99.5 103 129.5s98 45 160 45c44 0 86.667 -7 128 -21s76.666 -33.667 105.999 -59l-51 -112c-60 46 -118.667 69 -176 69c-46.667 0 -83 -18.833 -109 -56.5s-40.333 -92.834 -43 -165.501c15.333 26.667 37.5 47.834 66.5 63.501s61.167 23.5 96.5 23.5
c41.333 0 78.5 -9.83301 111.5 -29.5zM391.501 144.002c19 20.667 28.501 48.001 28.501 82.001c0 35.333 -9.33301 63.166 -28 83.499s-44.334 30.5 -77.001 30.5c-32 0 -57.833 -10.5 -77.5 -31.5s-29.5 -48.5 -29.5 -82.5c0 -33.333 10 -60.5 30 -81.5
s45.667 -31.5 77 -31.5c32 0 57.5 10.333 76.5 31z" />
    <glyph glyph-name="seven" unicode="7" horiz-adv-x="600" 
d="M45 712h511v-116l-317 -596h-167l316 587h-343v125z" />
    <glyph glyph-name="eight" unicode="8" horiz-adv-x="600" 
d="M535 304c25.333 -30 37.998 -66.6641 37.998 -109.997c0 -41.333 -11.5 -77.166 -34.5 -107.499s-55.167 -53.666 -96.5 -69.999s-88.666 -24.5 -141.999 -24.5s-100.666 8.16699 -141.999 24.5s-73.5 39.666 -96.5 69.999s-34.5 66.166 -34.5 107.499
c0 43.333 12.833 80.166 38.5 110.499s61.167 51.166 106.5 62.499c-40 13.333 -71.333 34 -94 62s-34 61 -34 99c0 38.667 11 72.667 33 102s52.5 51.833 91.5 67.5s82.833 23.5 131.5 23.5s92.5 -7.83301 131.5 -23.5s69.5 -38.167 91.5 -67.5s33 -63.333 33 -102
s-11.5 -72.334 -34.5 -101.001s-54.167 -48.667 -93.5 -60c46 -12 81.667 -33 107 -63zM220.498 578.003c-19.667 -15.333 -29.5 -37.666 -29.5 -66.999c0 -28 9.83301 -50.5 29.5 -67.5s46.167 -28.833 79.5 -35.5c33.333 6.66699 59.833 18.5 79.5 35.5
s29.5 39.5 29.5 67.5c0 29.333 -9.83301 51.666 -29.5 66.999s-46.167 23 -79.5 23s-59.833 -7.66699 -79.5 -23zM393.498 136.003c23 16 34.5 39.333 34.5 70c0 28.667 -11.5 52 -34.5 70s-54.167 30 -93.5 36c-39.333 -6 -70.5 -18 -93.5 -36s-34.5 -41.333 -34.5 -70
c0 -30.667 11.5 -54 34.5 -70s54.167 -24 93.5 -24s70.5 8 93.5 24z" />
    <glyph glyph-name="nine" unicode="9" horiz-adv-x="600" 
d="M490 629c50 -61.333 74.9961 -148.668 74.9961 -262.001c0 -78 -12 -145.167 -36 -201.5s-58.333 -99.5 -103 -129.5s-98 -45 -160 -45c-44 0 -86.667 7 -128 21s-76.666 33.667 -105.999 59l51 112c60.667 -46 119.334 -69 176.001 -69
c46.667 0 82.834 18.833 108.501 56.5s39.834 92.834 42.501 165.501c-15.333 -26.667 -37.333 -47.834 -66 -63.501s-60.667 -23.5 -96 -23.5c-41.333 0 -78.5 9.83301 -111.5 29.5s-58.667 47 -77 82s-27.5 74.833 -27.5 119.5c0 46 10.5 87.333 31.5 124
s50 65.334 87 86.001s78.833 31 125.5 31c92.667 0 164 -30.667 214 -92zM362.496 403.498c19.667 21 29.499 48.499 29.499 82.499c0 33.333 -10 60.5 -30 81.5s-45.667 31.5 -77 31.5c-32 0 -57.5 -10.333 -76.5 -31s-28.5 -48 -28.5 -82
c0 -35.333 9.33301 -63.166 28 -83.499s44.334 -30.5 77.001 -30.5c32 0 57.833 10.5 77.5 31.5z" />
    <glyph glyph-name="colon" unicode=":" horiz-adv-x="262" 
d="M49 496h163v-161h-163v161zM49 161h163v-161h-163v161z" />
    <glyph glyph-name="semicolon" unicode=";" horiz-adv-x="262" 
d="M49 496h163v-161h-163v161zM49 161h163.001v-103c0 -39.333 -6.83301 -74.833 -20.5 -106.5s-36.834 -63.5 -69.501 -95.5l-59 46c32.667 34 53 66.667 61 98h-75v161z" />
    <glyph glyph-name="less" unicode="&#x3c;" horiz-adv-x="600" 
d="M546 547v-113l-360 -145l360 -145v-113l-492 202v114z" />
    <glyph glyph-name="equal" unicode="=" horiz-adv-x="600" 
d="M546 442v-103h-492v103h492zM546 240v-103h-492v103h492z" />
    <glyph glyph-name="greater" unicode="&#x3e;" horiz-adv-x="600" 
d="M54 547l492 -200v-114l-492 -202v113l360 145l-360 145v113z" />
    <glyph glyph-name="question" unicode="?" horiz-adv-x="473" 
d="M242 721c43.333 0 81.666 -7.16602 114.999 -21.499s59.333 -34.5 78 -60.5s28 -55.667 28 -89c0 -35.333 -8.66699 -65.5 -26 -90.5s-42.666 -53.167 -75.999 -84.5c-26 -24.667 -45.5 -45.334 -58.5 -62.001s-21.167 -35 -24.5 -55l-5 -33h-89v50
c0 34.667 6.16699 63.334 18.5 86.001s30.5 48 54.5 76c17.333 20 30.333 37.167 39 51.5s13 30.166 13 47.499c0 20 -6.83301 35.333 -20.5 46s-33.167 16 -58.5 16c-48 0 -95 -14.333 -141 -43v125c44 27.333 95 41 153 41zM149 0.000976562v161h163v-161h-163z" />
    <glyph glyph-name="at" unicode="@" horiz-adv-x="948" 
d="M249 -106c-66.667 36 -118.001 86.3301 -154.001 150.997s-54 139 -54 223c0 92.667 19.167 173 57.5 241s91.166 120 158.499 156s143.666 54 228.999 54c88 0 163.667 -16.333 227 -49s111.5 -77.5 144.5 -134.5s49.5 -121.167 49.5 -192.5c0 -58.667 -9 -109 -27 -151
s-42.667 -73.833 -74 -95.5s-67.333 -32.5 -108 -32.5c-35.333 0 -64.166 7.66699 -86.499 23s-36.166 36 -41.499 62h-2c-18 -26.667 -38.5 -47.5 -61.5 -62.5s-51.5 -22.5 -85.5 -22.5c-50 0 -88.833 16.5 -116.5 49.5s-41.5 77.167 -41.5 132.5c0 48 9 91.833 27 131.5
s43 70.834 75 93.501s68.667 34 110 34c27.333 0 51.5 -5.66699 72.5 -17s35.833 -27.666 44.5 -48.999h3l10 57h108l-42 -238c-3.33301 -20 -5 -36 -5 -48c0 -20 4 -35 12 -45s21 -15 39 -15c12.667 0 25.834 6.5 39.501 19.5s25.167 34 34.5 63s14 65.833 14 110.5
c0 56.667 -12 106.334 -36 149.001s-60 75.834 -108 99.501s-106.333 35.5 -175 35.5c-64.667 0 -122.5 -14.167 -173.5 -42.5s-90.833 -69.5 -119.5 -123.5s-43 -118.333 -43 -193c0 -67.333 13.333 -126.333 40 -177s65.167 -89.834 115.5 -117.501
s109.833 -41.5 178.5 -41.5c49.333 0 91.833 6 127.5 18s62.167 28.667 79.5 50h140c-26 -48 -69.167 -86.667 -129.5 -116s-132.833 -44 -217.5 -44c-90 0 -168.333 18 -235 54zM514.999 174.997c19.333 16.667 33.832 38.333 43.499 65s14.5 55 14.5 85
c0 30.667 -7 53.834 -21 69.501s-33.333 23.5 -58 23.5c-25.333 0 -47.166 -8.5 -65.499 -25.5s-32.166 -38.667 -41.499 -65s-14 -53.5 -14 -81.5c0 -28.667 6.5 -51.834 19.5 -69.501s30.5 -26.5 52.5 -26.5c27.333 0 50.666 8.33301 69.999 25z" />
    <glyph glyph-name="A" unicode="A" horiz-adv-x="759" 
d="M615 0l-68 158h-333l-68 -158h-157l327 712h126l327 -712h-154zM266 277h230l-115 267z" />
    <glyph glyph-name="B" unicode="B" horiz-adv-x="696" 
d="M624 305c22.667 -30 34.002 -66.667 34.002 -110c0 -60 -22.333 -107.5 -67 -142.5s-105.334 -52.5 -182.001 -52.5h-338v712h328c74 0 132.5 -16.5 175.5 -49.5s64.5 -78.167 64.5 -135.5c0 -37.333 -9.83301 -70 -29.5 -98s-46.834 -48.333 -81.501 -61
c41.333 -12 73.333 -33 96 -63zM223.002 422l150 -0.000976562c40 0 69.833 6.83301 89.5 20.5s29.5 34.834 29.5 63.501c0 29.333 -9.83301 51 -29.5 65s-49.5 21 -89.5 21h-150v-170zM482.502 141.499c19 14.333 28.5 37.167 28.5 68.5c0 32 -9.5 55.333 -28.5 70
s-49.5 22 -91.5 22h-168v-182h168c42 0 72.5 7.16699 91.5 21.5z" />
    <glyph glyph-name="C" unicode="C" horiz-adv-x="685" 
d="M216.5 36.5c-53.667 30.333 -94.834 73 -123.501 128s-43 119.167 -43 192.5c0 72.667 14.333 136.5 43 191.5s69.834 97.5 123.501 127.5s116.5 45 188.5 45c47.333 0 92.5 -7.16699 135.5 -21.5s78.167 -34.5 105.5 -60.5l-49 -112c-32 24 -63.167 41.5 -93.5 52.5
s-62.166 16.5 -95.499 16.5c-64 0 -113 -20.333 -147 -61s-51 -100 -51 -178c0 -78.667 17 -138.5 51 -179.5s83 -61.5 147 -61.5c33.333 0 65.166 5.5 95.499 16.5s61.5 28.5 93.5 52.5l49 -112c-27.333 -26 -62.5 -46.167 -105.5 -60.5s-88.167 -21.5 -135.5 -21.5
c-72 0 -134.833 15.167 -188.5 45.5z" />
    <glyph glyph-name="D" unicode="D" horiz-adv-x="771" 
d="M71 712l275 -0.000976562c78 0 145 -14 201 -42s98.833 -68.667 128.5 -122s44.5 -117 44.5 -191c0 -74.667 -14.667 -138.667 -44 -192s-72 -94.166 -128 -122.499s-123.333 -42.5 -202 -42.5h-275v712zM336 125.999c152 0 228 77 228 231c0 152.667 -76 229 -228 229
h-109v-460h109z" />
    <glyph glyph-name="E" unicode="E" horiz-adv-x="599" 
d="M71 0v712h491v-121h-339v-168h318v-122h-318v-180h339v-121h-491z" />
    <glyph glyph-name="F" unicode="F" horiz-adv-x="578" 
d="M71 0v712h480v-123h-326v-165h306v-124h-306v-300h-154z" />
    <glyph glyph-name="G" unicode="G" horiz-adv-x="745" 
d="M682 393v-349.001c-34.667 -16.667 -75.167 -29.667 -121.5 -39s-93.833 -14 -142.5 -14c-75.333 0 -140.666 14.667 -195.999 44s-97.833 71.333 -127.5 126s-44.5 120 -44.5 196c0 74 14.833 138.333 44.5 193s71.667 96.834 126 126.501s117.833 44.5 190.5 44.5
c51.333 0 99.166 -7 143.499 -21s80.833 -33.667 109.5 -59l-50 -112c-33.333 24 -65.666 41.333 -96.999 52s-65.333 16 -102 16c-137.333 0 -206 -80 -206 -240c0 -163.333 71.667 -245 215 -245c39.333 0 78.666 5 117.999 15v157h-140v109h280z" />
    <glyph glyph-name="H" unicode="H" horiz-adv-x="779" 
d="M554 712h153v-712h-153v299h-330v-299h-153v712h153v-288h330v288z" />
    <glyph glyph-name="I" unicode="I" horiz-adv-x="299" 
d="M71 0v712h156v-712h-156z" />
    <glyph glyph-name="J" unicode="J" horiz-adv-x="381" 
d="M0 -53c28 -4 51.666 -5.99902 70.999 -5.99902c32 0 53.667 7.16699 65 21.5s17 40.166 17 77.499v672h156v-670c0 -79.333 -15.667 -137.5 -47 -174.5s-84.666 -55.5 -159.999 -55.5c-30 0 -64 3 -102 9v126z" />
    <glyph glyph-name="K" unicode="K" horiz-adv-x="685" 
d="M725 0h-188l-310 329v-329h-156v712h156v-313l299 313h186l-331 -340z" />
    <glyph glyph-name="L" unicode="L" horiz-adv-x="569" 
d="M71 0v712h156v-585h318v-127h-474z" />
    <glyph glyph-name="M" unicode="M" horiz-adv-x="851" 
d="M655 712h123v-712h-138v389l-164 -389h-101l-165 384v-384h-137v712h124l230 -525z" />
    <glyph glyph-name="N" unicode="N" horiz-adv-x="760" 
d="M541 712h147v-712h-116l-355 454v-454h-146v712h115l355 -453v453z" />
    <glyph glyph-name="O" unicode="O" horiz-adv-x="795" 
d="M213.5 35.5c-52.333 29.667 -92.666 72.167 -120.999 127.5s-42.5 120 -42.5 194s14.167 138.333 42.5 193s68.666 96.834 120.999 126.501s113.833 44.5 184.5 44.5s132 -14.833 184 -44.5s92 -71.834 120 -126.501s42 -119 42 -193s-14 -138.667 -42 -194
s-68 -97.833 -120 -127.5s-113.333 -44.5 -184 -44.5s-132.167 14.833 -184.5 44.5zM538.5 176c33.667 42 50.5 102.333 50.5 181s-16.833 138.667 -50.5 180s-80.5 62 -140.5 62s-106.833 -20.667 -140.5 -62s-50.5 -101.333 -50.5 -180
c0 -79.333 16.833 -139.833 50.5 -181.5s80.5 -62.5 140.5 -62.5s106.833 21 140.5 63z" />
    <glyph glyph-name="P" unicode="P" horiz-adv-x="675" 
d="M71 712h322.999c78.667 0 139.834 -19 183.501 -57s65.5 -89.667 65.5 -155c0 -64.667 -22 -116.167 -66 -154.5s-105 -57.5 -183 -57.5h-167v-288h-156v712zM373.999 407c81.333 0 122 30.667 122 92c0 62 -40.667 93 -122 93h-147v-185h147z" />
    <glyph glyph-name="Q" unicode="Q" horiz-adv-x="795" 
d="M622.5 -43c21.667 -22 46.499 -44.667 74.499 -68l-105 -80c-70 47.333 -126.333 108.333 -169 183c-6 -0.666992 -14.333 -1 -25 -1c-70.667 0 -132.167 14.833 -184.5 44.5s-92.666 72.167 -120.999 127.5s-42.5 120 -42.5 194s14.167 138.333 42.5 193
s68.666 96.834 120.999 126.501s113.833 44.5 184.5 44.5s132 -14.833 184 -44.5s92 -71.834 120 -126.501s42 -119 42 -193c0 -78 -15.333 -145.333 -46 -202s-74 -99 -130 -127c14.667 -25.333 32.834 -49 54.501 -71zM257.499 175.5
c33.667 -41.667 80.5 -62.5 140.5 -62.5s106.833 21 140.5 63s50.5 102.333 50.5 181s-16.833 138.667 -50.5 180s-80.5 62 -140.5 62s-106.833 -20.667 -140.5 -62s-50.5 -101.333 -50.5 -180c0 -79.333 16.833 -139.833 50.5 -181.5z" />
    <glyph glyph-name="R" unicode="R" horiz-adv-x="708" 
d="M672 0h-165.001l-91 237c-7.33301 18.667 -18.5 31.667 -33.5 39s-33.833 11 -56.5 11h-101v-287h-154v712h317c82.667 0 145.334 -18 188.001 -54s64 -87.667 64 -155c0 -47.333 -12.5 -88 -37.5 -122s-60.833 -58.333 -107.5 -73c42 -8.66699 72.333 -37.667 91 -87z
M364.999 406c44.667 0 77.334 7.5 98.001 22.5s31 38.5 31 70.5s-10.333 55.5 -31 70.5s-53.334 22.5 -98.001 22.5h-142v-186h142z" />
    <glyph glyph-name="S" unicode="S" horiz-adv-x="657" 
d="M164.5 12.5c-49.667 14.333 -90.833 34.502 -123.5 60.502l50 112c68.667 -48 145.334 -72 230.001 -72c45.333 0 80.166 7.16699 104.499 21.5s36.5 34.5 36.5 60.5c0 22.667 -11.167 40.5 -33.5 53.5s-61.5 25.5 -117.5 37.5c-62.667 12.667 -112.5 28.167 -149.5 46.5
s-64 40.666 -81 66.999s-25.5 59.166 -25.5 98.499c0 42.667 11.833 81 35.5 115s56.834 60.5 99.501 79.5s92 28.5 148 28.5c50.667 0 99.334 -7.33301 146.001 -22s84 -34.667 112 -60l-50 -112c-62.667 48 -131.667 72 -207 72c-40 0 -72 -8 -96 -24s-36 -37.667 -36 -65
c0 -16 4.5 -29.333 13.5 -40s24.167 -20.167 45.5 -28.5s51.666 -16.5 90.999 -24.5c91.333 -20 157.166 -46 197.499 -78s60.5 -75.667 60.5 -131c0 -66.667 -26 -119.5 -78 -158.5s-124.333 -58.5 -217 -58.5c-54 0 -105.833 7.16699 -155.5 21.5z" />
    <glyph glyph-name="T" unicode="T" horiz-adv-x="628" 
d="M235 0v585h-223v127h604v-127h-223v-585h-158z" />
    <glyph glyph-name="U" unicode="U" horiz-adv-x="746" 
d="M145 68c-52 51.333 -78 126.668 -78 226.001v418h153v-425c0 -56.667 13.167 -99.834 39.5 -129.501s64.166 -44.5 113.499 -44.5s87 14.833 113 44.5s39 72.834 39 129.501v425h154v-418c0 -98.667 -26.167 -173.834 -78.5 -225.501s-128.166 -77.5 -227.499 -77.5
c-100 0 -176 25.667 -228 77z" />
    <glyph glyph-name="V" unicode="V" horiz-adv-x="735" 
d="M593 712h157l-320 -712h-125l-320 712h162l222 -517z" />
    <glyph glyph-name="W" unicode="W" horiz-adv-x="1126" 
d="M958 712h149l-253 -712h-125l-166 471l-167 -471h-125l-253 712h159l164 -492l172 492h109l168 -499z" />
    <glyph glyph-name="X" unicode="X" horiz-adv-x="681" 
d="M428 361l272 -361h-182l-178 246l-178 -246h-182l271 361l-263 351h182l170 -237l172 237h182z" />
    <glyph glyph-name="Y" unicode="Y" horiz-adv-x="642" 
d="M694 712l-295 -436v-276h-156v277l-294 435h177l194 -304l196 304h178z" />
    <glyph glyph-name="Z" unicode="Z" horiz-adv-x="615" 
d="M223 123h357v-123h-529v114l343 475h-343v123h518v-113z" />
    <glyph glyph-name="bracketleft" unicode="[" horiz-adv-x="376" 
d="M105 -182v894h257v-113h-108v-668h108v-113h-257z" />
    <glyph glyph-name="backslash" unicode="\" horiz-adv-x="332" 
d="M234 -61l-261 816h124l262 -816h-125z" />
    <glyph glyph-name="bracketright" unicode="]" horiz-adv-x="376" 
d="M271 -182h-257v113h108v668h-108v113h257v-894z" />
    <glyph glyph-name="asciicircum" unicode="^" horiz-adv-x="600" 
d="M559 144h-114l-145 360l-145 -360h-114l202 493h114z" />
    <glyph glyph-name="underscore" unicode="_" horiz-adv-x="505" 
d="M14 -88v88h477v-88h-477z" />
    <glyph glyph-name="grave" unicode="`" horiz-adv-x="300" 
d="M105 561l-154 206h148l99 -206h-93z" />
    <glyph glyph-name="a" unicode="a" horiz-adv-x="630" 
d="M569 507v-507h-149v75c-15.333 -26 -37 -46.333 -65 -61s-59.667 -22 -95 -22c-44 0 -82.833 10.667 -116.5 32s-60 51.833 -79 91.5s-28.5 85.5 -28.5 137.5s9.5 98.333 28.5 139s45.5 72.167 79.5 94.5s72.667 33.5 116 33.5c35.333 0 67 -7.66699 95 -23
s49.667 -36 65 -62v72h149zM390 145c20 25.333 30 62 30 110s-10 84.833 -30 110.5s-48.667 38.5 -86 38.5s-66.333 -13.333 -87 -40s-31 -63.667 -31 -111s10.167 -83.5 30.5 -108.5s49.5 -37.5 87.5 -37.5c37.333 0 66 12.667 86 38z" />
    <glyph glyph-name="b" unicode="b" horiz-adv-x="631" 
d="M488 487.5c34 -21.667 60.332 -52.334 78.999 -92.001s28 -85.5 28 -137.5s-9.5 -98.167 -28.5 -138.5s-45.5 -71.666 -79.5 -93.999s-72.667 -33.5 -116 -33.5c-35.333 0 -67.166 7.5 -95.499 22.5s-49.833 35.5 -64.5 61.5v-76h-150v736h151v-300
c14.667 26 36.167 46.5 64.5 61.5s59.833 22.5 94.5 22.5c44 0 83 -10.833 117 -32.5zM413.999 146c20 26 30 63.333 30 112c0 46.667 -10 82.667 -30 108s-48.667 38 -86 38s-66.166 -12.833 -86.499 -38.5s-30.5 -62.167 -30.5 -109.5c0 -48 10.167 -84.833 30.5 -110.5
s49.166 -38.5 86.499 -38.5s66 13 86 39z" />
    <glyph glyph-name="c" unicode="c" horiz-adv-x="509" 
d="M106.5 62c-47 46.667 -70.502 110.333 -70.502 191c0 52.667 11.333 99.167 34 139.5s54.5 71.666 95.5 93.999s88.5 33.5 142.5 33.5c36.667 0 72.334 -5.66699 107.001 -17s62.334 -26.666 83.001 -45.999l-40 -105c-20 16 -42 28.5 -66 37.5s-47.333 13.5 -70 13.5
c-41.333 0 -73.5 -12.5 -96.5 -37.5s-34.5 -61.5 -34.5 -109.5c0 -48.667 11.333 -85.5 34 -110.5s55 -37.5 97 -37.5c22.667 0 46 4.5 70 13.5s46 21.5 66 37.5l40 -105c-22 -19.333 -50.667 -34.5 -86 -45.5s-72.333 -16.5 -111 -16.5c-82.667 0 -147.5 23.333 -194.5 70z
" />
    <glyph glyph-name="d" unicode="d" horiz-adv-x="630" 
d="M569 736v-736.001h-149v75c-15.333 -26 -37 -46.333 -65 -61s-59.667 -22 -95 -22c-43.333 0 -82 11.167 -116 33.5s-60.5 53.666 -79.5 93.999s-28.5 86.5 -28.5 138.5s9.5 97.833 28.5 137.5s45.333 70.334 79 92.001s72.5 32.5 116.5 32.5c34 0 65 -7.16699 93 -21.5
s49.667 -34.166 65 -59.499v297h151zM390 145.499c20 25.667 30 62.5 30 110.5c0 47.333 -10.167 83.833 -30.5 109.5s-48.833 38.5 -85.5 38.5c-37.333 0 -66.333 -12.667 -87 -38s-31 -61.333 -31 -108c0 -48 10.333 -85.167 31 -111.5s49.667 -39.5 87 -39.5
s66 12.833 86 38.5z" />
    <glyph glyph-name="e" unicode="e" horiz-adv-x="550" 
d="M516 241l-333.999 0.000976562c2.66699 -47.333 15 -81.833 37 -103.5s54.667 -32.5 98 -32.5c26 0 52 4.33301 78 13s50 21.334 72 38.001l40 -102c-24 -19.333 -53.833 -34.5 -89.5 -45.5s-71.5 -16.5 -107.5 -16.5c-85.333 0 -152.333 23.5 -201 70.5
s-73 111.167 -73 192.5c0 51.333 10.5 97.166 31.5 137.499s50.5 71.666 88.5 93.999s81 33.5 129 33.5c71.333 0 127.666 -23.167 168.999 -69.5s62 -108.833 62 -187.5v-22zM219.501 389.001c-17.667 -16.667 -29.166 -41 -34.499 -73h201c-8 65.333 -40.333 98 -97 98
c-28.667 0 -51.834 -8.33301 -69.501 -25z" />
    <glyph glyph-name="f" unicode="f" horiz-adv-x="385" 
d="M271 597.5c-14 -13 -21.002 -33.833 -21.002 -62.5v-28h106v-113h-106v-394h-151v394h-95v113h95v32c0 64 16.333 113.667 49 149s80 53 142 53c34.667 0 63.334 -4.33301 86.001 -13v-118c-19.333 4.66699 -35.666 7 -48.999 7c-23.333 0 -42 -6.5 -56 -19.5z" />
    <glyph glyph-name="g" unicode="g" horiz-adv-x="634" 
d="M574 507l0.00195312 -483.999c0 -80.667 -23.333 -142 -70 -184s-114.667 -63 -204 -63c-80.667 0 -150.667 15.667 -210 47l23 112c61.333 -30.667 122 -46 182 -46c43.333 0 75.666 10.167 96.999 30.5s32 51.166 32 92.499v88c-16 -24.667 -38.333 -45.167 -67 -61.5
s-60.334 -24.5 -95.001 -24.5c-44 0 -83 10.5 -117 31.5s-60.667 50.667 -80 89s-29 82.5 -29 132.5s9.66699 94.167 29 132.5s46 68 80 89s73 31.5 117 31.5c35.333 0 67.333 -7.66699 96 -23s50.667 -36 66 -62v72h150zM392.502 165.501
c21 24.333 31.5 58.168 31.5 101.501c0 42.667 -10.333 76.167 -31 100.5s-49.667 36.5 -87 36.5s-66.666 -12.167 -87.999 -36.5s-32 -57.833 -32 -100.5s10.667 -76.334 32 -101.001s50.666 -37 87.999 -37c36.667 0 65.5 12.167 86.5 36.5z" />
    <glyph glyph-name="h" unicode="h" horiz-adv-x="613" 
d="M554 307v-306.999h-151v300c0 35.333 -6.5 61.166 -19.5 77.499s-33.5 24.5 -61.5 24.5c-33.333 0 -60 -10.667 -80 -32s-30 -50 -30 -86v-284h-151v736h151v-298c18 26.667 41 47 69 61s59 21 93 21c120 0 180 -71 180 -213z" />
    <glyph glyph-name="i" unicode="i" horiz-adv-x="274" 
d="M61 0v507h151v-507h-151zM56 745h161v-142h-161v142z" />
    <glyph glyph-name="j" unicode="j" horiz-adv-x="274" 
d="M-16 -100c22.667 0 41.1689 6.66699 55.502 20s21.5 34 21.5 62v525h151v-529c0 -64 -16.333 -113.667 -49 -149s-80 -53 -142 -53c-34.667 0 -63.334 4.33301 -86.001 13v118c19.333 -4.66699 35.666 -7 48.999 -7zM55.002 745h161v-142h-161v142z" />
    <glyph glyph-name="k" unicode="k" horiz-adv-x="573" 
d="M596 0h-185l-199 227v-227h-151v736h151v-447l190 217h181l-215 -243z" />
    <glyph glyph-name="l" unicode="l" horiz-adv-x="274" 
d="M61 0v736h151v-736h-151z" />
    <glyph glyph-name="m" unicode="m" horiz-adv-x="911" 
d="M810.5 467.5c28.333 -35 42.5 -88.5 42.5 -160.5v-307h-151v302c0 35.333 -5.66699 60.833 -17 76.5s-30 23.5 -56 23.5c-30.667 0 -54.334 -10.667 -71.001 -32s-25 -51.333 -25 -90v-280h-151v302c0 34.667 -5.83301 60 -17.5 76s-30.167 24 -55.5 24
c-30.667 0 -54.5 -10.667 -71.5 -32s-25.5 -51.333 -25.5 -90v-280h-151v362c0 54 -2.66699 102.333 -8 145h142l9 -76c15.333 28.667 36.833 50.667 64.5 66s59.5 23 95.5 23c75.333 0 125.333 -31.333 150 -94c16.667 28.667 39.834 51.5 69.501 68.5
s62.167 25.5 97.5 25.5c58 0 101.167 -17.5 129.5 -52.5z" />
    <glyph glyph-name="n" unicode="n" horiz-adv-x="613" 
d="M554 307v-306.999h-151v300c0 35.333 -6.5 61.166 -19.5 77.499s-33.5 24.5 -61.5 24.5c-33.333 0 -60 -10.667 -80 -32s-30 -50 -30 -86v-284h-151v362c0 54 -2.66699 102.333 -8 145h142l10 -80c18 30 41.5 53 70.5 69s61.833 24 98.5 24c120 0 180 -71 180 -213z" />
    <glyph glyph-name="o" unicode="o" horiz-adv-x="604" 
d="M161.5 24c-40.333 21.333 -71.333 52 -93 92s-32.5 86.667 -32.5 140s10.833 100 32.5 140s52.667 70.667 93 92s87.5 32 141.5 32c53.333 0 100 -10.667 140 -32s70.833 -52 92.5 -92s32.5 -86.667 32.5 -140s-10.833 -100 -32.5 -140s-52.5 -70.667 -92.5 -92
s-86.667 -32 -140 -32c-54 0 -101.167 10.667 -141.5 32zM388.5 144c19.667 24.667 29.5 62 29.5 112c0 49.333 -9.83301 86.5 -29.5 111.5s-48.167 37.5 -85.5 37.5c-38 0 -67 -12.5 -87 -37.5s-30 -62.167 -30 -111.5c0 -99.333 39 -149 117 -149
c37.333 0 65.833 12.333 85.5 37z" />
    <glyph glyph-name="p" unicode="p" horiz-adv-x="631" 
d="M487 486.5c34 -22.333 60.5 -53.833 79.5 -94.5s28.5 -87 28.5 -139s-9.33301 -97.833 -28 -137.5s-45 -70.167 -79 -91.5s-73 -32 -117 -32c-35.333 0 -67 7.33301 -95 22s-49.333 35 -64 61v-291h-151v578c0 54 -2.66699 102.333 -8 145h142l10 -84
c13.333 30 34.833 53.667 64.5 71s63.5 26 101.5 26c43.333 0 82 -11.167 116 -33.5zM414 144.5c20 25 30 61.167 30 108.5s-10.167 84.333 -30.5 111s-48.833 40 -85.5 40c-37.333 0 -66.166 -12.833 -86.499 -38.5s-30.5 -62.5 -30.5 -110.5s10.167 -84.667 30.5 -110
s49.166 -38 86.499 -38s66 12.5 86 37.5z" />
    <glyph glyph-name="q" unicode="q" horiz-adv-x="630" 
d="M578 507c-6 -41.333 -8.99902 -89.668 -8.99902 -145.001v-578h-151v288c-15.333 -25.333 -36.833 -45 -64.5 -59s-58.834 -21 -93.501 -21c-44 0 -82.833 10.667 -116.5 32s-60 51.833 -79 91.5s-28.5 85.5 -28.5 137.5s9.5 98.333 28.5 139s45.5 72.167 79.5 94.5
s72.667 33.5 116 33.5c38 0 71.833 -8.66699 101.5 -26s51.167 -40.666 64.5 -69.999l10 83h142zM390.001 144.998c20 25.333 30 62 30 110s-10 84.833 -30 110.5s-48.667 38.5 -86 38.5s-66.333 -13.333 -87 -40s-31 -63.667 -31 -111s10.167 -83.5 30.5 -108.5
s49.5 -37.5 87.5 -37.5c37.333 0 66 12.667 86 38z" />
    <glyph glyph-name="r" unicode="r" horiz-adv-x="410" 
d="M410 509l-0.999023 -137.999c-24.667 11.333 -49.334 17 -74.001 17c-40 0 -70.5 -10.833 -91.5 -32.5s-31.5 -51.834 -31.5 -90.501v-265h-151v362c0 54 -2.66699 102.333 -8 145h142l10 -87c12.667 32 32.5 56.5 59.5 73.5s57.5 25.5 91.5 25.5
c21.333 0 39.333 -3.33301 54 -10z" />
    <glyph glyph-name="s" unicode="s" horiz-adv-x="503" 
d="M28 54l39.999 104.999c26.667 -19.333 56.334 -34.166 89.001 -44.499s66 -15.5 100 -15.5c26 0 46 4 60 12s21 19.667 21 35c0 12.667 -5 22.667 -15 30s-27.667 13.666 -53 18.999l-83 19c-48.667 10.667 -84.5 27.667 -107.5 51s-34.5 54.333 -34.5 93
c0 31.333 9.16699 59.333 27.5 84s43.833 43.834 76.5 57.501s70.334 20.5 113.001 20.5c36 0 71.333 -5.5 106 -16.5s65.667 -26.5 93 -46.5l-42 -101c-26 18 -52.5 31.667 -79.5 41s-53.167 14 -78.5 14c-24.667 0 -44 -4.33301 -58 -13s-21 -20.667 -21 -36
c0 -11.333 4.16699 -20.5 12.5 -27.5s23.166 -12.833 44.499 -17.5l85 -19c52 -12 89.667 -30 113 -54s35 -56 35 -96c0 -48 -19.333 -86 -58 -114s-91.667 -42 -159 -42c-96 0 -171.667 20.667 -227 62z" />
    <glyph glyph-name="t" unicode="t" horiz-adv-x="396" 
d="M251 394l-0.000976562 -197c0 -28 7.33301 -48.5 22 -61.5s33.667 -19.5 57 -19.5c14.667 0 31.334 2.33301 50.001 7v-117c-24 -9.33301 -53 -14 -87 -14c-62.667 0 -110.5 17.667 -143.5 53s-49.5 85 -49.5 149v200h-96v113h96v119l151 49v-168h129v-113h-129z" />
    <glyph glyph-name="u" unicode="u" horiz-adv-x="606" 
d="M545 507v-506.999h-147v74c-16 -26.667 -37 -47 -63 -61s-55.333 -21 -88 -21c-63.333 0 -110.666 17.667 -141.999 53s-47 88.666 -47 159.999v302h151v-305c0 -61.333 26.333 -92 79 -92c31.333 0 56.666 10.667 75.999 32s29 49.333 29 84v281h152z" />
    <glyph glyph-name="v" unicode="v" horiz-adv-x="550" 
d="M412 506h149l-223 -506h-128l-220 506h158l130 -328z" />
    <glyph glyph-name="w" unicode="w" horiz-adv-x="891" 
d="M744 507h146l-205 -507h-127l-115 294l-110 -294h-128l-205 507h154l122 -327l121 327h103l122 -330z" />
    <glyph glyph-name="x" unicode="x" horiz-adv-x="557" 
d="M365 261l214 -261h-178l-123 155l-123 -155h-177l214 261l-201 246h178l109 -141l109 141h179z" />
    <glyph glyph-name="y" unicode="y" horiz-adv-x="550" 
d="M561 507l-234 -533.999c-28.667 -64.667 -64.834 -112.167 -108.501 -142.5s-97.167 -49.833 -160.5 -58.5l-35 116c46.667 10 81.834 22.667 105.501 38s42.167 37.666 55.5 66.999l15 33l-209 481h158l130 -329l134 329h149z" />
    <glyph glyph-name="z" unicode="z" horiz-adv-x="530" 
d="M225 113h270v-113h-447v106l256 288h-252v113h433v-102z" />
    <glyph glyph-name="braceleft" unicode="{" horiz-adv-x="413" 
d="M266 305c-16.667 -21.333 -36.333 -34.6709 -59 -40.0039c22 -5.33301 41.5 -18.833 58.5 -40.5s25.5 -47.834 25.5 -78.501v-122c0 -29.333 6.83301 -52.166 20.5 -68.499s30.5 -24.5 50.5 -24.5h37v-113h-64c-62 0 -109.667 14.833 -143 44.5s-50 72.834 -50 129.501
v117c0 34.667 -4.33301 59.334 -13 74.001s-24.334 25.667 -47.001 33l-42 14v70l42 13c22.667 7.33301 38.334 18.333 47.001 33s13 39.334 13 74.001v118c0 56.667 16.667 99.834 50 129.501s81 44.5 143 44.5h64v-113h-37c-20 0 -36.833 -8 -50.5 -24
s-20.5 -39 -20.5 -69v-123c0 -30.667 -8.33301 -56.667 -25 -78z" />
    <glyph glyph-name="bar" unicode="|" horiz-adv-x="293" 
d="M76 -182v894h140v-894h-140z" />
    <glyph glyph-name="braceright" unicode="}" horiz-adv-x="413" 
d="M373 300l0.000976562 -69.9951l-42 -14c-22.667 -7.33301 -38.334 -18.333 -47.001 -33s-13 -39.334 -13 -74.001v-117c0 -56.667 -16.667 -99.834 -50 -129.501s-81 -44.5 -143 -44.5h-64v113h38c19.333 0 35.833 8.16699 49.5 24.5s20.5 39.166 20.5 68.499v122
c0 30.667 8.5 56.834 25.5 78.501s36.5 35.167 58.5 40.5c-22.667 5.33301 -42.334 18.666 -59.001 39.999s-25 47.333 -25 78v123c0 30 -6.83301 53 -20.5 69s-30.167 24 -49.5 24h-38v113h64c62 0 109.667 -14.833 143 -44.5s50 -72.834 50 -129.501v-118
c0 -34.667 4.33301 -59.334 13 -74.001s24.334 -25.667 47.001 -33z" />
    <glyph glyph-name="asciitilde" unicode="~" horiz-adv-x="600" 
d="M546 315c-10.667 -33.333 -28.667 -59.833 -54 -79.5s-53.333 -29.5 -84 -29.5c-20 0 -39 3.33301 -57 10s-40.667 17 -68 31c-22 10.667 -38.5 18.167 -49.5 22.5s-21.5 6.5 -31.5 6.5c-33.333 0 -57 -20.667 -71 -62l-77 51c10.667 33.333 28.667 59.833 54 79.5
s53.333 29.5 84 29.5c20 0 39.333 -3.33301 58 -10s41 -16.667 67 -30c22 -10.667 38.5 -18.167 49.5 -22.5s21.5 -6.5 31.5 -6.5c34 0 57.667 20 71 60z" />
    <glyph glyph-name="uni00A0" unicode="&#xa0;" horiz-adv-x="281" 
 />
    <glyph glyph-name="exclamdown" unicode="&#xa1;" horiz-adv-x="262" 
d="M49 335v161h163v-161h-163zM85 266h92l47 -447l-187 -1z" />
    <glyph glyph-name="cent" unicode="&#xa2;" horiz-adv-x="600" 
d="M540 54c-29.333 -25.333 -68.999 -43.333 -118.999 -54v-119h-121v114c-68 8 -122 35 -162 81s-60 105 -60 177c0 70.667 20.167 129.834 60.5 177.501s94.166 76.167 161.499 85.5v114h121v-117c49.333 -10.667 89 -29.334 119 -56.001l-41 -105
c-22.667 18.667 -48.667 32.667 -78 42v-277c29.333 8.66699 55.333 22.667 78 42zM300.001 121v269.001c-22 -11.333 -38.667 -28.333 -50 -51s-17 -50.334 -17 -83.001c0 -68.667 22.333 -113.667 67 -135z" />
    <glyph glyph-name="sterling" unicode="&#xa3;" horiz-adv-x="600" 
d="M258 174.5c-6.66699 -19.667 -18.334 -36.1699 -35.001 -49.5029h349v-125h-533v105c28.667 14.667 48.167 30.834 58.5 48.501s15.5 43.167 15.5 76.5v80h-74v93h74v117c0 39.333 9.5 74.333 28.5 105s46 54.334 81 71.001s75.167 25 120.5 25
c46 0 89.667 -6.83301 131 -20.5s77.333 -33.5 108 -59.5l-51 -112c-30.667 22.667 -61.167 39.834 -91.5 51.501s-58.166 17.5 -83.499 17.5c-58.667 0 -88 -29.667 -88 -89v-106h162v-93h-162v-59c0 -31.333 -3.33301 -56.833 -10 -76.5z" />
    <glyph glyph-name="currency" unicode="&#xa4;" horiz-adv-x="600" 
d="M496 100l54.001 -56.999l-54 -54l-55 56c-42.667 -32 -90.334 -48 -143.001 -48c-53.333 0 -101 15.667 -143 47l-54 -55l-55 54l54 57c-31.333 42.667 -47 91.667 -47 147c0 27.333 4 53.666 12 78.999s19.667 48.333 35 69l-54 56l56 56l54 -55
c42 30.667 89.333 46 142 46c51.333 0 98 -15 140 -45l55 56l60 -60l-55 -57c29.333 -42.667 44 -91 44 -145c0 -53.333 -15.333 -102.333 -46 -147zM359.501 133.001c19 12 34.166 28.1689 45.499 48.502s17 42.166 17 65.499c0 24 -5.66699 46.167 -17 66.5
s-26.666 36.5 -45.999 48.5s-40.333 18 -63 18c-22 0 -42.5 -6 -61.5 -18s-34 -28.333 -45 -49s-16.5 -42.667 -16.5 -66c0 -36.667 12 -67.834 36 -93.501s53.667 -38.5 89 -38.5c22 0 42.5 6 61.5 18z" />
    <glyph glyph-name="yen" unicode="&#xa5;" horiz-adv-x="600" 
d="M625 712l-207 -306h118v-92h-158v-62h158v-92h-158v-160h-157v160h-157v92h157v62h-157v92h118l-207 306h167l158 -245l158 245h167z" />
    <glyph glyph-name="brokenbar" unicode="&#xa6;" horiz-adv-x="293" 
d="M76 375v337h140v-337h-140zM76 -182v338h140v-338h-140z" />
    <glyph glyph-name="section" unicode="&#xa7;" horiz-adv-x="585" 
d="M487 86c17.333 -25.333 26.001 -52.6689 26.001 -82.002c0 -61.333 -20.333 -108.833 -61 -142.5s-98 -50.5 -172 -50.5c-93.333 0 -167.333 20.667 -222 62l39 104c57.333 -36.667 115 -55 173 -55c29.333 0 52.666 6.16699 69.999 18.5s26 28.833 26 49.5
c0 16.667 -4.83301 30.5 -14.5 41.5s-26.167 22.167 -49.5 33.5l-132 59c-48 21.333 -83.167 46.5 -105.5 75.5s-33.5 63.833 -33.5 104.5c0 55.333 22.333 102.333 67 141c-17.333 25.333 -26 52.333 -26 81c0 59.333 21.5 106.333 64.5 141s101.5 52 175.5 52
c77.333 0 142.666 -19.667 195.999 -59l-39 -101c-23.333 16 -48 28.333 -74 37s-51.667 13 -77 13c-31.333 0 -55.666 -6 -72.999 -18s-26 -29 -26 -51c0 -15.333 5.16699 -29 15.5 -41s26.5 -23 48.5 -33l131 -60c48 -21.333 83.333 -46.666 106 -75.999
s34 -63.666 34 -102.999c0 -56.667 -22.333 -103.667 -67 -141zM381.001 173.997l28 -15c6.66699 13.333 10 25.333 10 36c0 40 -27 73 -81 99l-133 66l-28 15c-8 -16 -12 -29.333 -12 -40c0 -38 27 -70.667 81 -98z" />
    <glyph glyph-name="dieresis" unicode="&#xa8;" horiz-adv-x="300" 
d="M-14 729h139v-132h-139v132zM178 729h139v-132h-139v132z" />
    <glyph glyph-name="copyright" unicode="&#xa9;" horiz-adv-x="823" 
d="M228.5 43c-55 32 -98.333 75.499 -130 130.499s-47.5 116.167 -47.5 183.5s15.833 128.333 47.5 183s75 97.834 130 129.501s116.167 47.5 183.5 47.5s128.5 -15.833 183.5 -47.5s98.333 -75 130 -130s47.5 -115.833 47.5 -182.5c0 -67.333 -15.833 -128.5 -47.5 -183.5
s-75.167 -98.5 -130.5 -130.5s-116.333 -48 -183 -48c-67.333 0 -128.5 16 -183.5 48zM563.5 95.999c45 26 80.167 61.833 105.5 107.5s38 96.834 38 153.501c0 56 -12.667 106.667 -38 152s-60.5 81 -105.5 107s-95.5 39 -151.5 39c-56.667 0 -107.5 -13 -152.5 -39
s-80.167 -61.667 -105.5 -107s-38 -96 -38 -152c0 -56.667 12.667 -107.834 38 -153.501s60.5 -81.5 105.5 -107.5s95.833 -39 152.5 -39c56 0 106.5 13 151.5 39zM266 197.499c-39.333 39.667 -59 92.8359 -59 159.503c0 66 19.667 118.667 59 158s92.666 59 159.999 59
c31.333 0 60.5 -4.16699 87.5 -12.5s50.167 -20.5 69.5 -36.5l-34 -92c-13.333 9.33301 -29.333 17.666 -48 24.999s-36.667 11 -54 11c-32.667 0 -58 -9.83301 -76 -29.5s-27 -47.167 -27 -82.5c0 -36.667 9 -64.834 27 -84.501s43.333 -29.5 76 -29.5
c17.333 0 35.333 3.66699 54 11s34.667 15.666 48 24.999l34 -92c-40.667 -32.667 -93 -49 -157 -49c-67.333 0 -120.666 19.833 -159.999 59.5z" />
    <glyph glyph-name="ordfeminine" unicode="&#xaa;" horiz-adv-x="342" 
d="M284 683c24 -22.667 36 -58 36 -106v-167h-116v51c-6.66699 -18 -17.5 -31.833 -32.5 -41.5s-32.5 -14.5 -52.5 -14.5c-29.333 0 -53.833 9.83301 -73.5 29.5s-29.5 42.167 -29.5 67.5c0 29.333 12.333 51 37 65s66.667 21 126 21h23v11c0 10 -3.33301 17.167 -10 21.5
s-18 6.5 -34 6.5c-33.333 0 -65.333 -7.66699 -96 -23l-23 86c36 18 80.667 27 134 27c50 0 87 -11.333 111 -34zM190 495.5c8 7 12 17.167 12 30.5v7h-9c-25.333 0 -42.5 -2.33301 -51.5 -7s-13.5 -11 -13.5 -19c0 -6 2.83301 -11.167 8.5 -15.5s13.167 -6.5 22.5 -6.5
c12.667 0 23 3.5 31 10.5z" />
    <glyph glyph-name="guillemotleft" unicode="&#xab;" horiz-adv-x="529" 
d="M157 85l-136 182l136 184h126l-131 -183l130 -183h-125zM381 85l-136 182l136 184h126l-131 -183l130 -183h-125z" />
    <glyph glyph-name="logicalnot" unicode="&#xac;" horiz-adv-x="600" 
d="M546 442v-306h-106v203h-386v103h492z" />
    <glyph glyph-name="uni00AD" unicode="&#xad;" horiz-adv-x="444" 
d="M67 211v119h311v-119h-311z" />
    <glyph glyph-name="registered" unicode="&#xae;" horiz-adv-x="823" 
d="M595.5 669.5c55 -31.667 98.333 -75.001 130 -130.001s47.5 -115.833 47.5 -182.5c0 -67.333 -15.833 -128.5 -47.5 -183.5s-75.167 -98.5 -130.5 -130.5s-116.333 -48 -183 -48c-67.333 0 -128.5 16 -183.5 48s-98.333 75.5 -130 130.5s-47.5 116.167 -47.5 183.5
s15.833 128.333 47.5 183s75 97.834 130 129.501s116.167 47.5 183.5 47.5s128.5 -15.833 183.5 -47.5zM686.5 241.499c13.667 35.667 20.501 74.168 20.501 115.501c0 56 -12.667 106.667 -38 152s-60.5 81 -105.5 107s-95.5 39 -151.5 39c-56.667 0 -107.5 -13 -152.5 -39
s-80.167 -61.667 -105.5 -107s-38 -96 -38 -152c0 -56.667 12.667 -107.834 38 -153.501s60.5 -81.5 105.5 -107.5s95.833 -39 152.5 -39c42 0 81.167 7.5 117.5 22.5s67.833 36.167 94.5 63.5h-142l-68 138c-6 10.667 -13 16 -21 16h-24v-154h-133v428h204
c52 0 92 -12.333 120 -37s42 -57.667 42 -99c0 -31.333 -8.83301 -58.5 -26.5 -81.5s-42.834 -38.833 -75.501 -47.5c14.667 -1.33301 28.5 -6.33301 41.5 -15s23.5 -20.334 31.5 -35.001l55 -108c25.333 26.667 44.833 57.834 58.5 93.501zM462.501 398
c8.33301 6 12.5 16.001 12.5 30.001c0 15.333 -4.16699 26.166 -12.5 32.499s-21.5 9.5 -39.5 9.5h-55v-81h55c18 0 31.167 3 39.5 9z" />
    <glyph glyph-name="macron" unicode="&#xaf;" horiz-adv-x="300" 
d="M-6 615v94h315v-94h-315z" />
    <glyph glyph-name="degree" unicode="&#xb0;" horiz-adv-x="372" 
d="M107.5 433c-23.667 13.333 -42.334 31.5 -56.001 54.5s-20.5 48.833 -20.5 77.5s6.83301 54.5 20.5 77.5s32.334 41.167 56.001 54.5s49.834 20 78.501 20s54.667 -6.66699 78 -20s41.833 -31.5 55.5 -54.5s20.5 -48.833 20.5 -77.5s-6.83301 -54.5 -20.5 -77.5
s-32.167 -41.167 -55.5 -54.5s-49.333 -20 -78 -20s-54.834 6.66699 -78.501 20zM237 511c14 14 21 32 21 54s-7 40 -21 54s-31 21 -51 21c-20.667 0 -38 -7 -52 -21s-21 -32 -21 -54s7 -40 21 -54s31.333 -21 52 -21c20 0 37 7 51 21z" />
    <glyph glyph-name="plusminus" unicode="&#xb1;" horiz-adv-x="600" 
d="M352 392h194v-104h-194v-145h-104v145h-194v104h194v144h104v-144zM54 0v104h492v-104h-492z" />
    <glyph glyph-name="uni00B2" unicode="&#xb2;" horiz-adv-x="380" 
d="M351 386l0.00195312 -101h-308v95l134 140c22.667 26 34 47.333 34 64c0 22.667 -15.667 34 -47 34c-36 0 -73.667 -11.667 -113 -35l-21 94c19.333 11.333 43.666 20.666 72.999 27.999s57.333 11 84 11c46.667 0 84 -11.167 112 -33.5s42 -52.166 42 -89.499
c0 -24 -5.83301 -46.833 -17.5 -68.5s-32.834 -46.5 -63.501 -74.5l-70 -64h161z" />
    <glyph glyph-name="uni00B3" unicode="&#xb3;" horiz-adv-x="380" 
d="M333 467.5c14 -17.667 21 -39.1689 21 -64.502c0 -35.333 -14.833 -64.666 -44.5 -87.999s-71.834 -35 -126.501 -35c-28 0 -56.667 3.66699 -86 11s-53.666 16.666 -72.999 27.999l20 94c40 -23.333 82.667 -35 128 -35c40 0 60 12 60 36c0 24.667 -18.333 37 -55 37
h-72v98h60c19.333 0 33.333 2.83301 42 8.5s13 14.834 13 27.501c0 22 -16.667 33 -50 33c-18.667 0 -38.5 -3 -59.5 -9s-40.833 -14.667 -59.5 -26l-21 94c19.333 11.333 43.166 20.666 71.499 27.999s54.5 11 78.5 11c51.333 0 91 -11.333 119 -34s42 -51 42 -85
c0 -21.333 -5.66699 -40.166 -17 -56.499s-27.666 -28.166 -48.999 -35.499c24.667 -7.33301 44 -19.833 58 -37.5z" />
    <glyph glyph-name="acute" unicode="&#xb4;" horiz-adv-x="300" 
d="M198 561h-93l99 206h148z" />
    <glyph glyph-name="uni00B5" unicode="&#xb5;" horiz-adv-x="606" 
d="M545 507l0.000976562 -507h-147v74c-16 -26.667 -37 -47 -63 -61s-55.333 -21 -88 -21c-13.333 0 -26 1 -38 3v-211h-151v723h151v-305c0 -61.333 26.333 -92 79 -92c31.333 0 56.666 10.667 75.999 32s29 49.333 29 84v281h152z" />
    <glyph glyph-name="paragraph" unicode="&#xb6;" horiz-adv-x="637" 
d="M565 -182h-100.999v804h-108v-804h-101v451c-44 0 -82.833 9.16699 -116.5 27.5s-59.834 44.333 -78.501 78s-28 72.5 -28 116.5c0 43.333 9.33301 81.833 28 115.5s45 59.667 79 78s73.667 27.5 119 27.5h307v-894z" />
    <glyph glyph-name="periodcentered" unicode="&#xb7;" horiz-adv-x="262" 
d="M49 351h163v-161h-163v161z" />
    <glyph glyph-name="cedilla" unicode="&#xb8;" horiz-adv-x="300" 
d="M250.5 -59c15.667 -12.667 23.502 -29.667 23.502 -51c0 -26.667 -12 -48.167 -36 -64.5s-57.667 -24.5 -101 -24.5c-14 0 -29.667 1.5 -47 4.5s-33 7.5 -47 13.5l12 59c30.667 -9.33301 57 -14 79 -14c30.667 0 46 8.66699 46 26c0 6 -2.83301 10.833 -8.5 14.5
s-13.834 5.5 -24.501 5.5c-8.66699 0 -20.667 -2.33301 -36 -7l-20 21l12 96h82l-9 -61c3.33301 0.666992 7.66602 1 12.999 1c25.333 0 45.833 -6.33301 61.5 -19z" />
    <glyph glyph-name="uni00B9" unicode="&#xb9;" horiz-adv-x="380" 
d="M282 386h81v-101h-291v101h80v189l-75 -41v117l114 61h91v-326z" />
    <glyph glyph-name="ordmasculine" unicode="&#xba;" horiz-adv-x="377" 
d="M60 450c-29.333 30 -44 67.333 -44 112c0 44 14.667 80.833 44 110.5s72.333 44.5 129 44.5s99.667 -14.833 129 -44.5s44 -66.5 44 -110.5c0 -44.667 -14.667 -82 -44 -112s-72.333 -45 -129 -45s-99.667 15 -129 45zM226 518
c9.33301 10.667 14.002 25.334 14.002 44.001c0 19.333 -4.5 33.833 -13.5 43.5s-21.5 14.5 -37.5 14.5s-28.5 -4.83301 -37.5 -14.5s-13.5 -24.167 -13.5 -43.5c0 -18.667 4.66699 -33.334 14 -44.001s21.666 -16 36.999 -16s27.666 5.33301 36.999 16z" />
    <glyph glyph-name="guillemotright" unicode="&#xbb;" horiz-adv-x="529" 
d="M149 85h-125l130 183l-132 183h127l135 -184zM373 85h-125l130 183l-132 183h127l135 -184z" />
    <glyph glyph-name="onequarter" unicode="&#xbc;" horiz-adv-x="962" 
d="M282 386h81v-101h-291v101h80v189l-75 -41v117l114 61h91v-326zM322 -30l-98 56l416 716l97 -56zM957 158v-93h-61v-65h-114v65h-188v89l201 273h101v-269h61zM699 158h83v112z" />
    <glyph glyph-name="onehalf" unicode="&#xbd;" horiz-adv-x="962" 
d="M282 386h81v-101h-291v101h80v189l-75 -41v117l114 61h91v-326zM322 -30l-98 56l416 716l97 -56zM933 101l0.00195312 -101h-308v95l134 140c22.667 26 34 47.333 34 64c0 22.667 -15.667 34 -47 34c-36 0 -73.667 -11.667 -113 -35l-21 94
c19.333 11.333 43.666 20.666 72.999 27.999s57.333 11 84 11c46.667 0 84 -11.167 112 -33.5s42 -52.166 42 -89.499c0 -24 -5.83301 -46.833 -17.5 -68.5s-32.834 -46.5 -63.501 -74.5l-70 -64h161z" />
    <glyph glyph-name="threequarters" unicode="&#xbe;" horiz-adv-x="962" 
d="M333 467.5c14 -17.667 21 -39.1689 21 -64.502c0 -35.333 -14.833 -64.666 -44.5 -87.999s-71.834 -35 -126.501 -35c-28 0 -56.667 3.66699 -86 11s-53.666 16.666 -72.999 27.999l20 94c40 -23.333 82.667 -35 128 -35c40 0 60 12 60 36c0 24.667 -18.333 37 -55 37
h-72v98h60c19.333 0 33.333 2.83301 42 8.5s13 14.834 13 27.501c0 22 -16.667 33 -50 33c-18.667 0 -38.5 -3 -59.5 -9s-40.833 -14.667 -59.5 -26l-21 94c19.333 11.333 43.166 20.666 71.499 27.999s54.5 11 78.5 11c51.333 0 91 -11.333 119 -34s42 -51 42 -85
c0 -21.333 -5.66699 -40.166 -17 -56.499s-27.666 -28.166 -48.999 -35.499c24.667 -7.33301 44 -19.833 58 -37.5zM322 -30.002l-98 56l416 716l97 -56zM957 157.998v-93h-61v-65h-114v65h-188v89l201 273h101v-269h61zM699 157.998h83v112z" />
    <glyph glyph-name="questiondown" unicode="&#xbf;" horiz-adv-x="473" 
d="M161 335v161h162v-161h-162zM120 -170c-33.333 13.333 -60 33 -80 59s-30 56.667 -30 92c0 22.667 4.66699 43 14 61s20.666 33.5 33.999 46.5s31 28.167 53 45.5c24.667 19.333 43.834 36.5 57.501 51.5s22.167 32.167 25.5 51.5l6 34h89v-51
c0 -34 -6.5 -61.333 -19.5 -82s-31.5 -41.667 -55.5 -63c-17.333 -16 -30 -29.5 -38 -40.5s-12 -24.167 -12 -39.5c0 -18.667 6.5 -33.667 19.5 -45s32.5 -17 58.5 -17c46 0 93.333 14.333 142 43v-124c-44.667 -28 -96 -42 -154 -42c-40 0 -76.667 6.66699 -110 20z" />
    <glyph glyph-name="Agrave" unicode="&#xc0;" horiz-adv-x="759" 
d="M615 0l-68 158h-333l-68 -158h-157l327 712h126l327 -712h-154zM266 277h230l-115 267zM332 773l-150 157h140l103 -157h-93z" />
    <glyph glyph-name="Aacute" unicode="&#xc1;" horiz-adv-x="759" 
d="M615 0l-68 158h-333l-68 -158h-157l327 712h126l327 -712h-154zM266 277h230l-115 267zM425 773h-93l103 157h140z" />
    <glyph glyph-name="Acircumflex" unicode="&#xc2;" horiz-adv-x="759" 
d="M615 0l-68 158h-333l-68 -158h-157l327 712h126l327 -712h-154zM266 277h230l-115 267zM316 773h-114l133 157h87l133 -157h-114l-62 86z" />
    <glyph glyph-name="Atilde" unicode="&#xc3;" horiz-adv-x="759" 
d="M615 0l-68 158h-333l-68 -158h-157l327 712h126l327 -712h-154zM266 277h230l-115 267zM233.5 890c20.333 24.667 46.5 37 78.5 37c12.667 0 25.167 -2.66699 37.5 -8s25.5 -12.666 39.5 -21.999c14.667 -8 25.834 -13.833 33.501 -17.5s15.5 -5.5 23.5 -5.5
c12.667 0 22.834 4.5 30.501 13.5s12.167 21.167 13.5 36.5h64c0 -48.667 -10.167 -85.334 -30.5 -110.001s-46.5 -37 -78.5 -37c-12.667 0 -25.167 2.66699 -37.5 8s-25.5 12.666 -39.5 21.999c-14.667 8 -25.834 13.833 -33.501 17.5s-15.5 5.5 -23.5 5.5
c-12.667 0 -22.834 -4.5 -30.501 -13.5s-12.167 -21.167 -13.5 -36.5h-64c0 48.667 10.167 85.334 30.5 110.001z" />
    <glyph glyph-name="Adieresis" unicode="&#xc4;" horiz-adv-x="759" 
d="M615 0l-68 158h-333l-68 -158h-157l327 712h126l327 -712h-154zM266 277h230l-115 267zM213 918h139v-132h-139v132zM405 918h139v-132h-139v132z" />
    <glyph glyph-name="Aring" unicode="&#xc5;" horiz-adv-x="759" 
d="M547 158h-333.001l-68 -158h-157l322 700c-12.667 10 -22.667 22.5 -30 37.5s-11 31.167 -11 48.5c0 30 10.667 55.5 32 76.5s47.333 31.5 78 31.5s56.667 -10.5 78 -31.5s32 -46.5 32 -76.5c0 -18 -3.66699 -34.5 -11 -49.5s-17.666 -27.5 -30.999 -37.5l321 -699h-154z
M348.499 818c-8.33301 -8.66699 -12.5 -19.334 -12.5 -32.001c0 -13.333 4.16699 -24.5 12.5 -33.5s18.833 -13.5 31.5 -13.5s23 4.5 31 13.5s12 20.167 12 33.5c0 12.667 -4 23.334 -12 32.001s-18.333 13 -31 13s-23.167 -4.33301 -31.5 -13zM265.999 277h230l-115 267z
" />
    <glyph glyph-name="AE" unicode="&#xc6;" horiz-adv-x="1010" 
d="M973 590h-324l12 -167h291v-122h-283l13 -179h291v-122h-424l-11 158h-305l-94 -158h-170l448 712h556v-122zM530 277l-21 313h-20l-186 -313h227z" />
    <glyph glyph-name="Ccedilla" unicode="&#xc7;" horiz-adv-x="685" 
d="M550 16c-38.667 -14 -79.6641 -22 -122.997 -24l-5 -33c3.33301 0.666992 7.66602 1 12.999 1c25.333 0 45.833 -6.33301 61.5 -19s23.5 -29.667 23.5 -51c0 -26.667 -12 -48.167 -36 -64.5s-57.667 -24.5 -101 -24.5c-14.667 0 -30.5 1.5 -47.5 4.5
s-32.5 7.5 -46.5 13.5l12 59c30.667 -9.33301 57 -14 79 -14c30.667 0 46 8.66699 46 26c0 6 -2.83301 10.833 -8.5 14.5s-13.834 5.5 -24.501 5.5c-8.66699 0 -20.667 -2.33301 -36 -7l-20 21l9 71c-60.667 8 -113.334 28 -158.001 60s-78.834 73.833 -102.501 125.5
s-35.5 110.5 -35.5 176.5c0 72.667 14.333 136.5 43 191.5s69.834 97.5 123.501 127.5s116.5 45 188.5 45c47.333 0 92.5 -7.16699 135.5 -21.5s78.167 -34.5 105.5 -60.5l-49 -112c-32 24 -63.167 41.5 -93.5 52.5s-62.166 16.5 -95.499 16.5c-64 0 -113 -20.333 -147 -61
s-51 -100 -51 -178c0 -78.667 17 -138.5 51 -179.5s83 -61.5 147 -61.5c33.333 0 65.166 5.5 95.499 16.5s61.5 28.5 93.5 52.5l49 -112c-25.333 -24 -57.333 -43 -96 -57z" />
    <glyph glyph-name="Egrave" unicode="&#xc8;" horiz-adv-x="599" 
d="M71 0v712h491v-121h-339v-168h318v-122h-318v-180h339v-121h-491zM286 773l-150 157h140l103 -157h-93z" />
    <glyph glyph-name="Eacute" unicode="&#xc9;" horiz-adv-x="599" 
d="M71 0v712h491v-121h-339v-168h318v-122h-318v-180h339v-121h-491zM379 773h-93l103 157h140z" />
    <glyph glyph-name="Ecircumflex" unicode="&#xca;" horiz-adv-x="599" 
d="M71 0v712h491v-121h-339v-168h318v-122h-318v-180h339v-121h-491zM270 773h-114l133 157h87l133 -157h-114l-62 86z" />
    <glyph glyph-name="Edieresis" unicode="&#xcb;" horiz-adv-x="599" 
d="M71 0v712h491v-121h-339v-168h318v-122h-318v-180h339v-121h-491zM167 918h139v-132h-139v132zM359 918h139v-132h-139v132z" />
    <glyph glyph-name="Igrave" unicode="&#xcc;" horiz-adv-x="299" 
d="M71 0v712h156v-712h-156zM101 773l-150 157h140l103 -157h-93z" />
    <glyph glyph-name="Iacute" unicode="&#xcd;" horiz-adv-x="299" 
d="M71 0v712h156v-712h-156zM194 773h-93l103 157h140z" />
    <glyph glyph-name="Icircumflex" unicode="&#xce;" horiz-adv-x="299" 
d="M71 0v712h156v-712h-156zM85 773h-114l133 157h87l133 -157h-114l-62 86z" />
    <glyph glyph-name="Idieresis" unicode="&#xcf;" horiz-adv-x="299" 
d="M71 0v712h156v-712h-156zM-18 918h139v-132h-139v132zM174 918h139v-132h-139v132z" />
    <glyph glyph-name="Eth" unicode="&#xd0;" horiz-adv-x="801" 
d="M577 670c56 -28 98.833 -68.668 128.5 -122.001s44.5 -117 44.5 -191c0 -74.667 -14.667 -138.667 -44 -192s-72 -94.166 -128 -122.499s-123 -42.5 -201 -42.5h-276v300h-87v119h87v293h276c77.333 0 144 -14 200 -42zM594 356.999c0 152.667 -76 229 -228 229h-108
v-167h186v-119h-186v-174h108c152 0 228 77 228 231z" />
    <glyph glyph-name="Ntilde" unicode="&#xd1;" horiz-adv-x="760" 
d="M541 712h147v-712h-116l-355 454v-454h-146v712h115l355 -453v453zM233.5 890c20.333 24.667 46.5 37 78.5 37c12.667 0 25.167 -2.66699 37.5 -8s25.5 -12.666 39.5 -21.999c14.667 -8 25.834 -13.833 33.501 -17.5s15.5 -5.5 23.5 -5.5
c12.667 0 22.834 4.5 30.501 13.5s12.167 21.167 13.5 36.5h64c0 -48.667 -10.167 -85.334 -30.5 -110.001s-46.5 -37 -78.5 -37c-12.667 0 -25.167 2.66699 -37.5 8s-25.5 12.666 -39.5 21.999c-14.667 8 -25.834 13.833 -33.501 17.5s-15.5 5.5 -23.5 5.5
c-12.667 0 -22.834 -4.5 -30.501 -13.5s-12.167 -21.167 -13.5 -36.5h-64c0 48.667 10.167 85.334 30.5 110.001z" />
    <glyph glyph-name="Ograve" unicode="&#xd2;" horiz-adv-x="795" 
d="M213.5 35.5c-52.333 29.667 -92.666 72.167 -120.999 127.5s-42.5 120 -42.5 194s14.167 138.333 42.5 193s68.666 96.834 120.999 126.501s113.833 44.5 184.5 44.5s132 -14.833 184 -44.5s92 -71.834 120 -126.501s42 -119 42 -193s-14 -138.667 -42 -194
s-68 -97.833 -120 -127.5s-113.333 -44.5 -184 -44.5s-132.167 14.833 -184.5 44.5zM538.5 176c33.667 42 50.5 102.333 50.5 181s-16.833 138.667 -50.5 180s-80.5 62 -140.5 62s-106.833 -20.667 -140.5 -62s-50.5 -101.333 -50.5 -180
c0 -79.333 16.833 -139.833 50.5 -181.5s80.5 -62.5 140.5 -62.5s106.833 21 140.5 63zM350 773l-150 157h140l103 -157h-93z" />
    <glyph glyph-name="Oacute" unicode="&#xd3;" horiz-adv-x="795" 
d="M213.5 35.5c-52.333 29.667 -92.666 72.167 -120.999 127.5s-42.5 120 -42.5 194s14.167 138.333 42.5 193s68.666 96.834 120.999 126.501s113.833 44.5 184.5 44.5s132 -14.833 184 -44.5s92 -71.834 120 -126.501s42 -119 42 -193s-14 -138.667 -42 -194
s-68 -97.833 -120 -127.5s-113.333 -44.5 -184 -44.5s-132.167 14.833 -184.5 44.5zM538.5 176c33.667 42 50.5 102.333 50.5 181s-16.833 138.667 -50.5 180s-80.5 62 -140.5 62s-106.833 -20.667 -140.5 -62s-50.5 -101.333 -50.5 -180
c0 -79.333 16.833 -139.833 50.5 -181.5s80.5 -62.5 140.5 -62.5s106.833 21 140.5 63zM443 773h-93l103 157h140z" />
    <glyph glyph-name="Ocircumflex" unicode="&#xd4;" horiz-adv-x="795" 
d="M213.5 35.5c-52.333 29.667 -92.666 72.167 -120.999 127.5s-42.5 120 -42.5 194s14.167 138.333 42.5 193s68.666 96.834 120.999 126.501s113.833 44.5 184.5 44.5s132 -14.833 184 -44.5s92 -71.834 120 -126.501s42 -119 42 -193s-14 -138.667 -42 -194
s-68 -97.833 -120 -127.5s-113.333 -44.5 -184 -44.5s-132.167 14.833 -184.5 44.5zM538.5 176c33.667 42 50.5 102.333 50.5 181s-16.833 138.667 -50.5 180s-80.5 62 -140.5 62s-106.833 -20.667 -140.5 -62s-50.5 -101.333 -50.5 -180
c0 -79.333 16.833 -139.833 50.5 -181.5s80.5 -62.5 140.5 -62.5s106.833 21 140.5 63zM334 773h-114l133 157h87l133 -157h-114l-62 86z" />
    <glyph glyph-name="Otilde" unicode="&#xd5;" horiz-adv-x="795" 
d="M213.5 35.5c-52.333 29.667 -92.666 72.167 -120.999 127.5s-42.5 120 -42.5 194s14.167 138.333 42.5 193s68.666 96.834 120.999 126.501s113.833 44.5 184.5 44.5s132 -14.833 184 -44.5s92 -71.834 120 -126.501s42 -119 42 -193s-14 -138.667 -42 -194
s-68 -97.833 -120 -127.5s-113.333 -44.5 -184 -44.5s-132.167 14.833 -184.5 44.5zM538.5 176c33.667 42 50.5 102.333 50.5 181s-16.833 138.667 -50.5 180s-80.5 62 -140.5 62s-106.833 -20.667 -140.5 -62s-50.5 -101.333 -50.5 -180
c0 -79.333 16.833 -139.833 50.5 -181.5s80.5 -62.5 140.5 -62.5s106.833 21 140.5 63zM251.5 890c20.333 24.667 46.5 37 78.5 37c12.667 0 25.167 -2.66699 37.5 -8s25.5 -12.666 39.5 -21.999c14.667 -8 25.834 -13.833 33.501 -17.5s15.5 -5.5 23.5 -5.5
c12.667 0 22.834 4.5 30.501 13.5s12.167 21.167 13.5 36.5h64c0 -48.667 -10.167 -85.334 -30.5 -110.001s-46.5 -37 -78.5 -37c-12.667 0 -25.167 2.66699 -37.5 8s-25.5 12.666 -39.5 21.999c-14.667 8 -25.834 13.833 -33.501 17.5s-15.5 5.5 -23.5 5.5
c-12.667 0 -22.834 -4.5 -30.501 -13.5s-12.167 -21.167 -13.5 -36.5h-64c0 48.667 10.167 85.334 30.5 110.001z" />
    <glyph glyph-name="Odieresis" unicode="&#xd6;" horiz-adv-x="795" 
d="M213.5 35.5c-52.333 29.667 -92.666 72.167 -120.999 127.5s-42.5 120 -42.5 194s14.167 138.333 42.5 193s68.666 96.834 120.999 126.501s113.833 44.5 184.5 44.5s132 -14.833 184 -44.5s92 -71.834 120 -126.501s42 -119 42 -193s-14 -138.667 -42 -194
s-68 -97.833 -120 -127.5s-113.333 -44.5 -184 -44.5s-132.167 14.833 -184.5 44.5zM538.5 176c33.667 42 50.5 102.333 50.5 181s-16.833 138.667 -50.5 180s-80.5 62 -140.5 62s-106.833 -20.667 -140.5 -62s-50.5 -101.333 -50.5 -180
c0 -79.333 16.833 -139.833 50.5 -181.5s80.5 -62.5 140.5 -62.5s106.833 21 140.5 63zM231 918h139v-132h-139v132zM423 918h139v-132h-139v132z" />
    <glyph glyph-name="multiply" unicode="&#xd7;" horiz-adv-x="600" 
d="M536 452l-163 -163l163 -163l-73 -72l-163 163l-163 -163l-73 72l163 163l-163 163l73 74l163 -163l163 163z" />
    <glyph glyph-name="Oslash" unicode="&#xd8;" horiz-adv-x="795" 
d="M715 522c19.333 -48.667 29.002 -103.668 29.002 -165.001c0 -74 -14 -138.667 -42 -194s-68 -97.833 -120 -127.5s-113.333 -44.5 -184 -44.5c-48.667 0 -93 7 -133 21l-47 -80l-100 60l46 79c-36.667 32 -64.834 72.333 -84.501 121s-29.5 103.667 -29.5 165
c0 74 14.167 138.333 42.5 193s68.666 96.834 120.999 126.501s113.833 44.5 184.5 44.5c49.333 0 93.333 -7 132 -21l47 80l100 -60l-46 -78c36.667 -31.333 64.667 -71.333 84 -120zM240.002 201.999l225 386.001c-20.667 7.33301 -43 11 -67 11
c-60 0 -106.833 -20.667 -140.5 -62s-50.5 -101.333 -50.5 -180c0 -62.667 11 -114.334 33 -155.001zM538.502 176c33.667 42 50.499 102.332 50.499 180.999c0 62.667 -11 114.334 -33 155.001l-226 -388c20.667 -7.33301 43.334 -11 68.001 -11c60 0 106.833 21 140.5 63z
" />
    <glyph glyph-name="Ugrave" unicode="&#xd9;" horiz-adv-x="746" 
d="M145 68c-52 51.333 -78 126.668 -78 226.001v418h153v-425c0 -56.667 13.167 -99.834 39.5 -129.501s64.166 -44.5 113.499 -44.5s87 14.833 113 44.5s39 72.834 39 129.501v425h154v-418c0 -98.667 -26.167 -173.834 -78.5 -225.501s-128.166 -77.5 -227.499 -77.5
c-100 0 -176 25.667 -228 77zM326 773.002l-150 157h140l103 -157h-93z" />
    <glyph glyph-name="Uacute" unicode="&#xda;" horiz-adv-x="746" 
d="M145 68c-52 51.333 -78 126.668 -78 226.001v418h153v-425c0 -56.667 13.167 -99.834 39.5 -129.501s64.166 -44.5 113.499 -44.5s87 14.833 113 44.5s39 72.834 39 129.501v425h154v-418c0 -98.667 -26.167 -173.834 -78.5 -225.501s-128.166 -77.5 -227.499 -77.5
c-100 0 -176 25.667 -228 77zM419 773.002h-93l103 157h140z" />
    <glyph glyph-name="Ucircumflex" unicode="&#xdb;" horiz-adv-x="746" 
d="M145 68c-52 51.333 -78 126.668 -78 226.001v418h153v-425c0 -56.667 13.167 -99.834 39.5 -129.501s64.166 -44.5 113.499 -44.5s87 14.833 113 44.5s39 72.834 39 129.501v425h154v-418c0 -98.667 -26.167 -173.834 -78.5 -225.501s-128.166 -77.5 -227.499 -77.5
c-100 0 -176 25.667 -228 77zM310 773.002h-114l133 157h87l133 -157h-114l-62 86z" />
    <glyph glyph-name="Udieresis" unicode="&#xdc;" horiz-adv-x="746" 
d="M145 68c-52 51.333 -78 126.668 -78 226.001v418h153v-425c0 -56.667 13.167 -99.834 39.5 -129.501s64.166 -44.5 113.499 -44.5s87 14.833 113 44.5s39 72.834 39 129.501v425h154v-418c0 -98.667 -26.167 -173.834 -78.5 -225.501s-128.166 -77.5 -227.499 -77.5
c-100 0 -176 25.667 -228 77zM207 918.002h139v-132h-139v132zM399 918.002h139v-132h-139v132z" />
    <glyph glyph-name="Yacute" unicode="&#xdd;" horiz-adv-x="642" 
d="M694 712l-295 -436v-276h-156v277l-294 435h177l194 -304l196 304h178zM366 773h-93l103 157h140z" />
    <glyph glyph-name="Thorn" unicode="&#xde;" horiz-adv-x="676" 
d="M578.5 514c43 -36.667 64.5 -87.332 64.5 -151.999s-21.833 -115.334 -65.5 -152.001s-103.167 -55 -178.5 -55h-175v-155h-153v712h153v-143h175c76.667 0 136.5 -18.333 179.5 -55zM466.5 295.502c19.667 13.667 29.5 35.833 29.5 66.5
c0 30 -9.83301 51.833 -29.5 65.5s-50.5 20.5 -92.5 20.5h-150v-173h150c42 0 72.833 6.83301 92.5 20.5z" />
    <glyph glyph-name="germandbls" unicode="&#xdf;" horiz-adv-x="697" 
d="M620.5 295c36.333 -34 54.5029 -77.6641 54.5029 -130.997c0 -52 -19.5 -93.667 -58.5 -125s-90.833 -47 -155.5 -47c-41.333 0 -79.5 5.33301 -114.5 16s-64.5 26 -88.5 46l41 108c49.333 -39.333 103.666 -59 162.999 -59c25.333 0 44.166 6.33301 56.499 19
s18.5 29 18.5 49c0 28 -17.667 53.167 -53 75.5s-94 43.5 -176 63.5v111c51.333 16 87.166 34.167 107.499 54.5s30.5 45.166 30.5 74.499c0 56.667 -33 85 -99 85c-44 0 -77.5 -12.5 -100.5 -37.5s-34.5 -62.833 -34.5 -113.5v-484h-151v462c0 92.667 24.5 163 73.5 211
s119.833 72 212.5 72c74.667 0 133.5 -16.5 176.5 -49.5s64.5 -79.167 64.5 -138.5c0 -38.667 -10.167 -72.834 -30.5 -102.501s-56.166 -55.834 -107.499 -78.501c77.333 -20 134.166 -47 170.499 -81z" />
    <glyph glyph-name="agrave" unicode="&#xe0;" horiz-adv-x="630" 
d="M569 507v-507h-149v75c-15.333 -26 -37 -46.333 -65 -61s-59.667 -22 -95 -22c-44 0 -82.833 10.667 -116.5 32s-60 51.833 -79 91.5s-28.5 85.5 -28.5 137.5s9.5 98.333 28.5 139s45.5 72.167 79.5 94.5s72.667 33.5 116 33.5c35.333 0 67 -7.66699 95 -23
s49.667 -36 65 -62v72h149zM390 145c20 25.333 30 62 30 110s-10 84.833 -30 110.5s-48.667 38.5 -86 38.5s-66.333 -13.333 -87 -40s-31 -63.667 -31 -111s10.167 -83.5 30.5 -108.5s49.5 -37.5 87.5 -37.5c37.333 0 66 12.667 86 38zM268 572l-154 206h148l99 -206h-93z
" />
    <glyph glyph-name="aacute" unicode="&#xe1;" horiz-adv-x="630" 
d="M569 507v-507h-149v75c-15.333 -26 -37 -46.333 -65 -61s-59.667 -22 -95 -22c-44 0 -82.833 10.667 -116.5 32s-60 51.833 -79 91.5s-28.5 85.5 -28.5 137.5s9.5 98.333 28.5 139s45.5 72.167 79.5 94.5s72.667 33.5 116 33.5c35.333 0 67 -7.66699 95 -23
s49.667 -36 65 -62v72h149zM390 145c20 25.333 30 62 30 110s-10 84.833 -30 110.5s-48.667 38.5 -86 38.5s-66.333 -13.333 -87 -40s-31 -63.667 -31 -111s10.167 -83.5 30.5 -108.5s49.5 -37.5 87.5 -37.5c37.333 0 66 12.667 86 38zM361 572h-93l99 206h148z" />
    <glyph glyph-name="acircumflex" unicode="&#xe2;" horiz-adv-x="630" 
d="M569 507v-507h-149v75c-15.333 -26 -37 -46.333 -65 -61s-59.667 -22 -95 -22c-44 0 -82.833 10.667 -116.5 32s-60 51.833 -79 91.5s-28.5 85.5 -28.5 137.5s9.5 98.333 28.5 139s45.5 72.167 79.5 94.5s72.667 33.5 116 33.5c35.333 0 67 -7.66699 95 -23
s49.667 -36 65 -62v72h149zM390 145c20 25.333 30 62 30 110s-10 84.833 -30 110.5s-48.667 38.5 -86 38.5s-66.333 -13.333 -87 -40s-31 -63.667 -31 -111s10.167 -83.5 30.5 -108.5s49.5 -37.5 87.5 -37.5c37.333 0 66 12.667 86 38zM256 572h-118l131 206h91l131 -206
h-118l-58 117z" />
    <glyph glyph-name="atilde" unicode="&#xe3;" horiz-adv-x="630" 
d="M569 507v-507h-149v75c-15.333 -26 -37 -46.333 -65 -61s-59.667 -22 -95 -22c-44 0 -82.833 10.667 -116.5 32s-60 51.833 -79 91.5s-28.5 85.5 -28.5 137.5s9.5 98.333 28.5 139s45.5 72.167 79.5 94.5s72.667 33.5 116 33.5c35.333 0 67 -7.66699 95 -23
s49.667 -36 65 -62v72h149zM390 145c20 25.333 30 62 30 110s-10 84.833 -30 110.5s-48.667 38.5 -86 38.5s-66.333 -13.333 -87 -40s-31 -63.667 -31 -111s10.167 -83.5 30.5 -108.5s49.5 -37.5 87.5 -37.5c37.333 0 66 12.667 86 38zM169.5 713.5
c20.333 24.333 46.5 36.5 78.5 36.5c12.667 0 24.834 -2.5 36.501 -7.5s25.167 -12.167 40.5 -21.5c14.667 -8 25.834 -13.833 33.501 -17.5s15.5 -5.5 23.5 -5.5c12.667 0 22.834 4.33301 30.501 13s12.167 20.667 13.5 36h64c0 -48 -10.167 -84.333 -30.5 -109
s-46.5 -37 -78.5 -37c-12.667 0 -24.834 2.5 -36.501 7.5s-25.167 12.167 -40.5 21.5c-14.667 8 -25.834 13.833 -33.501 17.5s-15.5 5.5 -23.5 5.5c-12.667 0 -22.834 -4.33301 -30.501 -13s-12.167 -20.667 -13.5 -36h-64c0 48.667 10.167 85.167 30.5 109.5z" />
    <glyph glyph-name="adieresis" unicode="&#xe4;" horiz-adv-x="630" 
d="M569 507v-507h-149v75c-15.333 -26 -37 -46.333 -65 -61s-59.667 -22 -95 -22c-44 0 -82.833 10.667 -116.5 32s-60 51.833 -79 91.5s-28.5 85.5 -28.5 137.5s9.5 98.333 28.5 139s45.5 72.167 79.5 94.5s72.667 33.5 116 33.5c35.333 0 67 -7.66699 95 -23
s49.667 -36 65 -62v72h149zM390 145c20 25.333 30 62 30 110s-10 84.833 -30 110.5s-48.667 38.5 -86 38.5s-66.333 -13.333 -87 -40s-31 -63.667 -31 -111s10.167 -83.5 30.5 -108.5s49.5 -37.5 87.5 -37.5c37.333 0 66 12.667 86 38zM149 740h139v-132h-139v132zM341 740
h139v-132h-139v132z" />
    <glyph glyph-name="aring" unicode="&#xe5;" horiz-adv-x="630" 
d="M569 507v-507h-149v75c-15.333 -26 -37 -46.333 -65 -61s-59.667 -22 -95 -22c-44 0 -82.833 10.667 -116.5 32s-60 51.833 -79 91.5s-28.5 85.5 -28.5 137.5s9.5 98.333 28.5 139s45.5 72.167 79.5 94.5s72.667 33.5 116 33.5c35.333 0 67 -7.66699 95 -23
s49.667 -36 65 -62v72h149zM390 145c20 25.333 30 62 30 110s-10 84.833 -30 110.5s-48.667 38.5 -86 38.5s-66.333 -13.333 -87 -40s-31 -63.667 -31 -111s10.167 -83.5 30.5 -108.5s49.5 -37.5 87.5 -37.5c37.333 0 66 12.667 86 38zM236 598.5
c-21.333 21 -32.002 46.833 -32.002 77.5c0 30 10.833 55.5 32.5 76.5s47.834 31.5 78.501 31.5s56.667 -10.5 78 -31.5s32 -46.5 32 -76.5c0 -30.667 -10.667 -56.5 -32 -77.5s-47.333 -31.5 -78 -31.5c-31.333 0 -57.666 10.5 -78.999 31.5zM345.998 642.5
c8 9 12 20.167 12 33.5c0 12.667 -4 23.334 -12 32.001s-18.333 13 -31 13s-23.167 -4.33301 -31.5 -13s-12.5 -19.334 -12.5 -32.001c0 -13.333 4.16699 -24.5 12.5 -33.5s18.833 -13.5 31.5 -13.5s23 4.5 31 13.5z" />
    <glyph glyph-name="ae" unicode="&#xe6;" horiz-adv-x="866" 
d="M831 241l-328.005 0.000976562c1.33301 -42.667 13 -76 35 -100s55 -36 99 -36c24 0 48.667 4.33301 74 13s49.333 21.334 72 38.001l39 -102c-23.333 -19.333 -52.666 -34.5 -87.999 -45.5s-71 -16.5 -107 -16.5c-48 0 -89.667 8.66699 -125 26
s-63.333 42.666 -84 75.999c-15.333 -32.667 -38.166 -57.834 -68.499 -75.501s-66.166 -26.5 -107.499 -26.5c-38.667 0 -73.167 7 -103.5 21s-54.166 33.5 -71.499 58.5s-26 53.833 -26 86.5c0 55.333 21.667 95.5 65 120.5s115.333 37.5 216 37.5h37v4
c0 30.667 -6.5 52.667 -19.5 66s-34.167 20 -63.5 20c-28 0 -57.167 -4.5 -87.5 -13.5s-59.166 -21.833 -86.499 -38.5l-40 103c28 18 63 33 105 45s81 18 117 18c77.333 0 132.333 -22.333 165 -67c20.667 22 45 38.667 73 50s58.667 17 92 17
c42.667 0 80.5 -10.833 113.5 -32.5s58.5 -52 76.5 -91s27 -83.833 27 -134.5v-21zM507.995 316.001h194.001c-3.33301 32 -12.833 56.333 -28.5 73s-36.834 25 -63.501 25c-55.333 0 -89.333 -32.667 -102 -98zM333.496 128.501c17 21 25.5 47.833 25.5 80.5v34h-29
c-50.667 0 -87.167 -6.5 -109.5 -19.5s-33.5 -32.833 -33.5 -59.5c0 -20 7 -36.167 21 -48.5s32 -18.5 54 -18.5c30.667 0 54.5 10.5 71.5 31.5z" />
    <glyph glyph-name="ccedilla" unicode="&#xe7;" horiz-adv-x="509" 
d="M421.5 12c-31 -10.667 -63.833 -17 -98.5 -19l-5 -34c3.33301 0.666992 7.66602 1 12.999 1c25.333 0 45.833 -6.33301 61.5 -19s23.5 -29.667 23.5 -51c0 -26.667 -12 -48.167 -36 -64.5s-57.667 -24.5 -101 -24.5c-14.667 0 -30.5 1.5 -47.5 4.5s-32.5 7.5 -46.5 13.5
l12 59c30.667 -9.33301 57 -14 79 -14c30.667 0 46 8.66699 46 26c0 6 -2.83301 10.833 -8.5 14.5s-13.834 5.5 -24.501 5.5c-8.66699 0 -20.667 -2.33301 -36 -7l-20 21l9 73c-64.667 10.667 -115.167 38.5 -151.5 83.5s-54.5 102.5 -54.5 172.5
c0 52.667 11.333 99.167 34 139.5s54.5 71.666 95.5 93.999s88.5 33.5 142.5 33.5c36.667 0 72.334 -5.66699 107.001 -17s62.334 -26.666 83.001 -45.999l-40 -105c-20 16 -42 28.5 -66 37.5s-47.333 13.5 -70 13.5c-41.333 0 -73.5 -12.5 -96.5 -37.5
s-34.5 -61.5 -34.5 -109.5c0 -48.667 11.333 -85.5 34 -110.5s55 -37.5 97 -37.5c22.667 0 46 4.5 70 13.5s46 21.5 66 37.5l40 -105c-20 -17.333 -45.5 -31.333 -76.5 -42z" />
    <glyph glyph-name="egrave" unicode="&#xe8;" horiz-adv-x="550" 
d="M516 241l-333.999 0.000976562c2.66699 -47.333 15 -81.833 37 -103.5s54.667 -32.5 98 -32.5c26 0 52 4.33301 78 13s50 21.334 72 38.001l40 -102c-24 -19.333 -53.833 -34.5 -89.5 -45.5s-71.5 -16.5 -107.5 -16.5c-85.333 0 -152.333 23.5 -201 70.5
s-73 111.167 -73 192.5c0 51.333 10.5 97.166 31.5 137.499s50.5 71.666 88.5 93.999s81 33.5 129 33.5c71.333 0 127.666 -23.167 168.999 -69.5s62 -108.833 62 -187.5v-22zM219.501 389.001c-17.667 -16.667 -29.166 -41 -34.499 -73h201c-8 65.333 -40.333 98 -97 98
c-28.667 0 -51.834 -8.33301 -69.501 -25zM238.002 572.001l-154 206h148l99 -206h-93z" />
    <glyph glyph-name="eacute" unicode="&#xe9;" horiz-adv-x="550" 
d="M516 241l-333.999 0.000976562c2.66699 -47.333 15 -81.833 37 -103.5s54.667 -32.5 98 -32.5c26 0 52 4.33301 78 13s50 21.334 72 38.001l40 -102c-24 -19.333 -53.833 -34.5 -89.5 -45.5s-71.5 -16.5 -107.5 -16.5c-85.333 0 -152.333 23.5 -201 70.5
s-73 111.167 -73 192.5c0 51.333 10.5 97.166 31.5 137.499s50.5 71.666 88.5 93.999s81 33.5 129 33.5c71.333 0 127.666 -23.167 168.999 -69.5s62 -108.833 62 -187.5v-22zM219.501 389.001c-17.667 -16.667 -29.166 -41 -34.499 -73h201c-8 65.333 -40.333 98 -97 98
c-28.667 0 -51.834 -8.33301 -69.501 -25zM331.002 572.001h-93l99 206h148z" />
    <glyph glyph-name="ecircumflex" unicode="&#xea;" horiz-adv-x="550" 
d="M516 241l-333.999 0.000976562c2.66699 -47.333 15 -81.833 37 -103.5s54.667 -32.5 98 -32.5c26 0 52 4.33301 78 13s50 21.334 72 38.001l40 -102c-24 -19.333 -53.833 -34.5 -89.5 -45.5s-71.5 -16.5 -107.5 -16.5c-85.333 0 -152.333 23.5 -201 70.5
s-73 111.167 -73 192.5c0 51.333 10.5 97.166 31.5 137.499s50.5 71.666 88.5 93.999s81 33.5 129 33.5c71.333 0 127.666 -23.167 168.999 -69.5s62 -108.833 62 -187.5v-22zM219.501 389.001c-17.667 -16.667 -29.166 -41 -34.499 -73h201c-8 65.333 -40.333 98 -97 98
c-28.667 0 -51.834 -8.33301 -69.501 -25zM226.002 572.001h-118l131 206h91l131 -206h-118l-58 117z" />
    <glyph glyph-name="edieresis" unicode="&#xeb;" horiz-adv-x="550" 
d="M516 241l-333.999 0.000976562c2.66699 -47.333 15 -81.833 37 -103.5s54.667 -32.5 98 -32.5c26 0 52 4.33301 78 13s50 21.334 72 38.001l40 -102c-24 -19.333 -53.833 -34.5 -89.5 -45.5s-71.5 -16.5 -107.5 -16.5c-85.333 0 -152.333 23.5 -201 70.5
s-73 111.167 -73 192.5c0 51.333 10.5 97.166 31.5 137.499s50.5 71.666 88.5 93.999s81 33.5 129 33.5c71.333 0 127.666 -23.167 168.999 -69.5s62 -108.833 62 -187.5v-22zM219.501 389.001c-17.667 -16.667 -29.166 -41 -34.499 -73h201c-8 65.333 -40.333 98 -97 98
c-28.667 0 -51.834 -8.33301 -69.501 -25zM119.002 740.001h139v-132h-139v132zM311.002 740.001h139v-132h-139v132z" />
    <glyph glyph-name="igrave" unicode="&#xec;" horiz-adv-x="274" 
d="M61 0v507h151v-507h-151zM90 572l-154 206h148l99 -206h-93z" />
    <glyph glyph-name="iacute" unicode="&#xed;" horiz-adv-x="274" 
d="M61 0v507h151v-507h-151zM183 572h-93l99 206h148z" />
    <glyph glyph-name="icircumflex" unicode="&#xee;" horiz-adv-x="274" 
d="M61 0v507h151v-507h-151zM78 572h-118l131 206h91l131 -206h-118l-58 117z" />
    <glyph glyph-name="idieresis" unicode="&#xef;" horiz-adv-x="274" 
d="M61 0v507h151v-507h-151zM-29 740h139v-132h-139v132zM163 740h139v-132h-139v132z" />
    <glyph glyph-name="eth" unicode="&#xf0;" horiz-adv-x="612" 
d="M552.5 450.5c15.667 -47 23.498 -95.167 23.498 -144.5c0 -100.667 -24.167 -178.167 -72.5 -232.5s-117.166 -81.5 -206.499 -81.5c-51.333 0 -96.666 10 -135.999 30s-70 48.167 -92 84.5s-33 78.166 -33 125.499c0 46 10.5 87.167 31.5 123.5s50.167 64.5 87.5 84.5
s80 30 128 30c59.333 0 106 -16 140 -48c-14 48 -37 88.333 -69 121l-179 -50l-22 78l120 33c-35.333 18.667 -75.333 31.667 -120 39l34 105c91.333 -13.333 169.333 -47.666 234 -102.999l129 36l20 -77l-86 -24c30 -39.333 52.833 -82.5 68.5 -129.5zM387.998 139.5
c20 21.667 30 52.502 30 92.502c0 41.333 -9.83301 72.666 -29.5 93.999s-48.167 32 -85.5 32c-38 0 -67 -10.833 -87 -32.5s-30 -52.834 -30 -93.501s10 -71.667 30 -93s49 -32 87 -32c36.667 0 65 10.833 85 32.5z" />
    <glyph glyph-name="ntilde" unicode="&#xf1;" horiz-adv-x="613" 
d="M554 307v-306.999h-151v300c0 35.333 -6.5 61.166 -19.5 77.499s-33.5 24.5 -61.5 24.5c-33.333 0 -60 -10.667 -80 -32s-30 -50 -30 -86v-284h-151v362c0 54 -2.66699 102.333 -8 145h142l10 -80c18 30 41.5 53 70.5 69s61.833 24 98.5 24c120 0 180 -71 180 -213z
M162.5 713.501c20.333 24.333 46.5 36.5 78.5 36.5c12.667 0 24.834 -2.5 36.501 -7.5s25.167 -12.167 40.5 -21.5c14.667 -8 25.834 -13.833 33.501 -17.5s15.5 -5.5 23.5 -5.5c12.667 0 22.834 4.33301 30.501 13s12.167 20.667 13.5 36h64
c0 -48 -10.167 -84.333 -30.5 -109s-46.5 -37 -78.5 -37c-12.667 0 -24.834 2.5 -36.501 7.5s-25.167 12.167 -40.5 21.5c-14.667 8 -25.834 13.833 -33.501 17.5s-15.5 5.5 -23.5 5.5c-12.667 0 -22.834 -4.33301 -30.501 -13s-12.167 -20.667 -13.5 -36h-64
c0 48.667 10.167 85.167 30.5 109.5z" />
    <glyph glyph-name="ograve" unicode="&#xf2;" horiz-adv-x="604" 
d="M161.5 24c-40.333 21.333 -71.333 52 -93 92s-32.5 86.667 -32.5 140s10.833 100 32.5 140s52.667 70.667 93 92s87.5 32 141.5 32c53.333 0 100 -10.667 140 -32s70.833 -52 92.5 -92s32.5 -86.667 32.5 -140s-10.833 -100 -32.5 -140s-52.5 -70.667 -92.5 -92
s-86.667 -32 -140 -32c-54 0 -101.167 10.667 -141.5 32zM388.5 144c19.667 24.667 29.5 62 29.5 112c0 49.333 -9.83301 86.5 -29.5 111.5s-48.167 37.5 -85.5 37.5c-38 0 -67 -12.5 -87 -37.5s-30 -62.167 -30 -111.5c0 -99.333 39 -149 117 -149
c37.333 0 65.833 12.333 85.5 37zM256 572l-154 206h148l99 -206h-93z" />
    <glyph glyph-name="oacute" unicode="&#xf3;" horiz-adv-x="604" 
d="M161.5 24c-40.333 21.333 -71.333 52 -93 92s-32.5 86.667 -32.5 140s10.833 100 32.5 140s52.667 70.667 93 92s87.5 32 141.5 32c53.333 0 100 -10.667 140 -32s70.833 -52 92.5 -92s32.5 -86.667 32.5 -140s-10.833 -100 -32.5 -140s-52.5 -70.667 -92.5 -92
s-86.667 -32 -140 -32c-54 0 -101.167 10.667 -141.5 32zM388.5 144c19.667 24.667 29.5 62 29.5 112c0 49.333 -9.83301 86.5 -29.5 111.5s-48.167 37.5 -85.5 37.5c-38 0 -67 -12.5 -87 -37.5s-30 -62.167 -30 -111.5c0 -99.333 39 -149 117 -149
c37.333 0 65.833 12.333 85.5 37zM349 572h-93l99 206h148z" />
    <glyph glyph-name="ocircumflex" unicode="&#xf4;" horiz-adv-x="604" 
d="M161.5 24c-40.333 21.333 -71.333 52 -93 92s-32.5 86.667 -32.5 140s10.833 100 32.5 140s52.667 70.667 93 92s87.5 32 141.5 32c53.333 0 100 -10.667 140 -32s70.833 -52 92.5 -92s32.5 -86.667 32.5 -140s-10.833 -100 -32.5 -140s-52.5 -70.667 -92.5 -92
s-86.667 -32 -140 -32c-54 0 -101.167 10.667 -141.5 32zM388.5 144c19.667 24.667 29.5 62 29.5 112c0 49.333 -9.83301 86.5 -29.5 111.5s-48.167 37.5 -85.5 37.5c-38 0 -67 -12.5 -87 -37.5s-30 -62.167 -30 -111.5c0 -99.333 39 -149 117 -149
c37.333 0 65.833 12.333 85.5 37zM244 572h-118l131 206h91l131 -206h-118l-58 117z" />
    <glyph glyph-name="otilde" unicode="&#xf5;" horiz-adv-x="604" 
d="M161.5 24c-40.333 21.333 -71.333 52 -93 92s-32.5 86.667 -32.5 140s10.833 100 32.5 140s52.667 70.667 93 92s87.5 32 141.5 32c53.333 0 100 -10.667 140 -32s70.833 -52 92.5 -92s32.5 -86.667 32.5 -140s-10.833 -100 -32.5 -140s-52.5 -70.667 -92.5 -92
s-86.667 -32 -140 -32c-54 0 -101.167 10.667 -141.5 32zM388.5 144c19.667 24.667 29.5 62 29.5 112c0 49.333 -9.83301 86.5 -29.5 111.5s-48.167 37.5 -85.5 37.5c-38 0 -67 -12.5 -87 -37.5s-30 -62.167 -30 -111.5c0 -99.333 39 -149 117 -149
c37.333 0 65.833 12.333 85.5 37zM157.5 713.5c20.333 24.333 46.5 36.5 78.5 36.5c12.667 0 24.834 -2.5 36.501 -7.5s25.167 -12.167 40.5 -21.5c14.667 -8 25.834 -13.833 33.501 -17.5s15.5 -5.5 23.5 -5.5c12.667 0 22.834 4.33301 30.501 13s12.167 20.667 13.5 36h64
c0 -48 -10.167 -84.333 -30.5 -109s-46.5 -37 -78.5 -37c-12.667 0 -24.834 2.5 -36.501 7.5s-25.167 12.167 -40.5 21.5c-14.667 8 -25.834 13.833 -33.501 17.5s-15.5 5.5 -23.5 5.5c-12.667 0 -22.834 -4.33301 -30.501 -13s-12.167 -20.667 -13.5 -36h-64
c0 48.667 10.167 85.167 30.5 109.5z" />
    <glyph glyph-name="odieresis" unicode="&#xf6;" horiz-adv-x="604" 
d="M161.5 24c-40.333 21.333 -71.333 52 -93 92s-32.5 86.667 -32.5 140s10.833 100 32.5 140s52.667 70.667 93 92s87.5 32 141.5 32c53.333 0 100 -10.667 140 -32s70.833 -52 92.5 -92s32.5 -86.667 32.5 -140s-10.833 -100 -32.5 -140s-52.5 -70.667 -92.5 -92
s-86.667 -32 -140 -32c-54 0 -101.167 10.667 -141.5 32zM388.5 144c19.667 24.667 29.5 62 29.5 112c0 49.333 -9.83301 86.5 -29.5 111.5s-48.167 37.5 -85.5 37.5c-38 0 -67 -12.5 -87 -37.5s-30 -62.167 -30 -111.5c0 -99.333 39 -149 117 -149
c37.333 0 65.833 12.333 85.5 37zM137 740h139v-132h-139v132zM329 740h139v-132h-139v132z" />
    <glyph glyph-name="divide" unicode="&#xf7;" horiz-adv-x="600" 
d="M234 422v119h120v-119h-120zM546 341v-103h-492v103h492zM234 32v120h120v-120h-120z" />
    <glyph glyph-name="oslash" unicode="&#xf8;" horiz-adv-x="604" 
d="M543.5 379c16.333 -36 24.5 -77 24.5 -123c0 -53.333 -10.833 -100 -32.5 -140s-52.5 -70.667 -92.5 -92s-86.667 -32 -140 -32c-34 0 -66.667 4.66699 -98 14l-41 -70l-71 42l38 66c-30.667 22.667 -54.167 52.167 -70.5 88.5s-24.5 77.5 -24.5 123.5
c0 53.333 10.833 100 32.5 140s52.667 70.667 93 92s87.5 32 141.5 32c34.667 0 67 -4.66699 97 -14l40 68l72 -42l-38 -64c30 -23.333 53.167 -53 69.5 -89zM201 163l139 239c-10.667 2.66699 -23 4 -37 4c-80 0 -120 -50 -120 -150c0 -38 6 -69 18 -93zM421 256
c0 36.667 -5.66699 67 -17 91l-138 -237c10 -2.66699 22.333 -4 37 -4c78.667 0 118 50 118 150z" />
    <glyph glyph-name="ugrave" unicode="&#xf9;" horiz-adv-x="606" 
d="M545 507v-506.999h-147v74c-16 -26.667 -37 -47 -63 -61s-55.333 -21 -88 -21c-63.333 0 -110.666 17.667 -141.999 53s-47 88.666 -47 159.999v302h151v-305c0 -61.333 26.333 -92 79 -92c31.333 0 56.666 10.667 75.999 32s29 49.333 29 84v281h152zM256 572.001
l-154 206h148l99 -206h-93z" />
    <glyph glyph-name="uacute" unicode="&#xfa;" horiz-adv-x="606" 
d="M545 507v-506.999h-147v74c-16 -26.667 -37 -47 -63 -61s-55.333 -21 -88 -21c-63.333 0 -110.666 17.667 -141.999 53s-47 88.666 -47 159.999v302h151v-305c0 -61.333 26.333 -92 79 -92c31.333 0 56.666 10.667 75.999 32s29 49.333 29 84v281h152zM349 572.001h-93
l99 206h148z" />
    <glyph glyph-name="ucircumflex" unicode="&#xfb;" horiz-adv-x="606" 
d="M545 507v-506.999h-147v74c-16 -26.667 -37 -47 -63 -61s-55.333 -21 -88 -21c-63.333 0 -110.666 17.667 -141.999 53s-47 88.666 -47 159.999v302h151v-305c0 -61.333 26.333 -92 79 -92c31.333 0 56.666 10.667 75.999 32s29 49.333 29 84v281h152zM244 572.001h-118
l131 206h91l131 -206h-118l-58 117z" />
    <glyph glyph-name="udieresis" unicode="&#xfc;" horiz-adv-x="606" 
d="M545 507v-506.999h-147v74c-16 -26.667 -37 -47 -63 -61s-55.333 -21 -88 -21c-63.333 0 -110.666 17.667 -141.999 53s-47 88.666 -47 159.999v302h151v-305c0 -61.333 26.333 -92 79 -92c31.333 0 56.666 10.667 75.999 32s29 49.333 29 84v281h152zM137 740.001h139
v-132h-139v132zM329 740.001h139v-132h-139v132z" />
    <glyph glyph-name="yacute" unicode="&#xfd;" horiz-adv-x="550" 
d="M561 507l-234 -533.999c-28.667 -64.667 -64.834 -112.167 -108.501 -142.5s-97.167 -49.833 -160.5 -58.5l-35 116c46.667 10 81.834 22.667 105.501 38s42.167 37.666 55.5 66.999l15 33l-209 481h158l130 -329l134 329h149zM321 572.001h-93l99 206h148z" />
    <glyph glyph-name="thorn" unicode="&#xfe;" horiz-adv-x="631" 
d="M487 486.5c34 -22.333 60.5 -53.833 79.5 -94.5s28.5 -87 28.5 -139s-9.5 -97.833 -28.5 -137.5s-45.5 -70.167 -79.5 -91.5s-72.667 -32 -116 -32c-35.333 0 -67 7.33301 -95 22s-49.333 35 -64 61v-291h-151v952h151v-300c14.667 26 36.167 46.5 64.5 61.5
s59.833 22.5 94.5 22.5c43.333 0 82 -11.167 116 -33.5zM414 144.5c20 25 30 61.167 30 108.5s-10.167 84.333 -30.5 111s-48.833 40 -85.5 40c-37.333 0 -66.166 -12.833 -86.499 -38.5s-30.5 -62.5 -30.5 -110.5s10.167 -84.667 30.5 -110s49.166 -38 86.499 -38
s66 12.5 86 37.5z" />
    <glyph glyph-name="ydieresis" unicode="&#xff;" horiz-adv-x="550" 
d="M561 507l-234 -533.999c-28.667 -64.667 -64.834 -112.167 -108.501 -142.5s-97.167 -49.833 -160.5 -58.5l-35 116c46.667 10 81.834 22.667 105.501 38s42.167 37.666 55.5 66.999l15 33l-209 481h158l130 -329l134 329h149zM109 740.001h139v-132h-139v132z
M301 740.001h139v-132h-139v132z" />
    <glyph glyph-name="Amacron" unicode="&#x100;" horiz-adv-x="759" 
d="M615 0l-68 158h-333l-68 -158h-157l327 712h126l327 -712h-154zM266 277h230l-115 267zM221 804v94h315v-94h-315z" />
    <glyph glyph-name="amacron" unicode="&#x101;" horiz-adv-x="630" 
d="M569 507v-507h-149v75c-15.333 -26 -37 -46.333 -65 -61s-59.667 -22 -95 -22c-44 0 -82.833 10.667 -116.5 32s-60 51.833 -79 91.5s-28.5 85.5 -28.5 137.5s9.5 98.333 28.5 139s45.5 72.167 79.5 94.5s72.667 33.5 116 33.5c35.333 0 67 -7.66699 95 -23
s49.667 -36 65 -62v72h149zM390 145c20 25.333 30 62 30 110s-10 84.833 -30 110.5s-48.667 38.5 -86 38.5s-66.333 -13.333 -87 -40s-31 -63.667 -31 -111s10.167 -83.5 30.5 -108.5s49.5 -37.5 87.5 -37.5c37.333 0 66 12.667 86 38zM157 626v94h315v-94h-315z" />
    <glyph glyph-name="Abreve" unicode="&#x102;" horiz-adv-x="759" 
d="M615 0l-68 158h-333l-68 -158h-157l327 712h126l327 -712h-154zM266 277h230l-115 267zM266 810c-31.333 18.667 -53.668 46 -67.001 82l70 29c21.333 -32.667 58 -49 110 -49c51.333 0 87.666 16.333 108.999 49l70 -29c-13.333 -36 -35.666 -63.333 -66.999 -82
s-68.666 -28 -111.999 -28c-44 0 -81.667 9.33301 -113 28z" />
    <glyph glyph-name="abreve" unicode="&#x103;" horiz-adv-x="630" 
d="M569 507v-507h-149v75c-15.333 -26 -37 -46.333 -65 -61s-59.667 -22 -95 -22c-44 0 -82.833 10.667 -116.5 32s-60 51.833 -79 91.5s-28.5 85.5 -28.5 137.5s9.5 98.333 28.5 139s45.5 72.167 79.5 94.5s72.667 33.5 116 33.5c35.333 0 67 -7.66699 95 -23
s49.667 -36 65 -62v72h149zM390 145c20 25.333 30 62 30 110s-10 84.833 -30 110.5s-48.667 38.5 -86 38.5s-66.333 -13.333 -87 -40s-31 -63.667 -31 -111s10.167 -83.5 30.5 -108.5s49.5 -37.5 87.5 -37.5c37.333 0 66 12.667 86 38zM197 631
c-34.667 24.667 -57.667 61 -69 109l69 30c29.333 -54 68.666 -81 117.999 -81c48.667 0 87.667 27 117 81l69 -30c-11.333 -47.333 -34.166 -83.5 -68.499 -108.5s-73.5 -37.5 -117.5 -37.5s-83.333 12.333 -118 37z" />
    <glyph glyph-name="Aogonek" unicode="&#x104;" horiz-adv-x="759" 
d="M775 -178c-32 -14 -65.667 -21 -101 -21c-37.333 0 -68.166 10.167 -92.499 30.5s-36.5 47.166 -36.5 80.499c0 22 5.33301 42.333 16 61s26 34 46 46l-60 139h-333l-68 -158h-157l327 712h126l327 -712h-51c-22.667 0 -41 -6.16699 -55 -18.5s-21 -28.166 -21 -47.499
c0 -18 5.16699 -31.5 15.5 -40.5s25.5 -13.5 45.5 -13.5c17.333 0 35.666 4.33301 54.999 13zM266 277h230l-115 267z" />
    <glyph glyph-name="aogonek" unicode="&#x105;" horiz-adv-x="630" 
d="M609 -182c-31.333 -14.667 -65.667 -21.999 -103 -21.999c-38 0 -69.167 10.833 -93.5 32.5s-36.5 49.5 -36.5 83.5c0 37.333 14.667 68.666 44 93.999v69c-15.333 -26 -37 -46.333 -65 -61s-59.667 -22 -95 -22c-44 0 -83 10.833 -117 32.5s-60.333 52.167 -79 91.5
s-28 85 -28 137s9.5 98.167 28.5 138.5s45.5 71.833 79.5 94.5s72.667 34 116 34c35.333 0 67 -7.66699 95 -23s49.667 -36 65 -62v72h149v-507h-9c-26 -0 -47 -6.16699 -63 -18.5s-24 -28.833 -24 -49.5c0 -18 5.33301 -31.833 16 -41.5s26 -14.5 46 -14.5
c18.667 0 37.667 4.66699 57 14zM389.999 145.001c20 25.333 30 62 30 110s-10 84.833 -30 110.5s-48.667 38.5 -86 38.5s-66.333 -13.333 -87 -40s-31 -63.667 -31 -111s10.167 -83.5 30.5 -108.5s49.5 -37.5 87.5 -37.5c37.333 0 66 12.667 86 38z" />
    <glyph glyph-name="Cacute" unicode="&#x106;" horiz-adv-x="685" 
d="M216.5 36.5c-53.667 30.333 -94.834 73 -123.501 128s-43 119.167 -43 192.5c0 72.667 14.333 136.5 43 191.5s69.834 97.5 123.501 127.5s116.5 45 188.5 45c47.333 0 92.5 -7.16699 135.5 -21.5s78.167 -34.5 105.5 -60.5l-49 -112c-32 24 -63.167 41.5 -93.5 52.5
s-62.166 16.5 -95.499 16.5c-64 0 -113 -20.333 -147 -61s-51 -100 -51 -178c0 -78.667 17 -138.5 51 -179.5s83 -61.5 147 -61.5c33.333 0 65.166 5.5 95.499 16.5s61.5 28.5 93.5 52.5l49 -112c-27.333 -26 -62.5 -46.167 -105.5 -60.5s-88.167 -21.5 -135.5 -21.5
c-72 0 -134.833 15.167 -188.5 45.5zM444 773h-93l103 157h140z" />
    <glyph glyph-name="cacute" unicode="&#x107;" horiz-adv-x="509" 
d="M106.5 62c-47 46.667 -70.502 110.333 -70.502 191c0 52.667 11.333 99.167 34 139.5s54.5 71.666 95.5 93.999s88.5 33.5 142.5 33.5c36.667 0 72.334 -5.66699 107.001 -17s62.334 -26.666 83.001 -45.999l-40 -105c-20 16 -42 28.5 -66 37.5s-47.333 13.5 -70 13.5
c-41.333 0 -73.5 -12.5 -96.5 -37.5s-34.5 -61.5 -34.5 -109.5c0 -48.667 11.333 -85.5 34 -110.5s55 -37.5 97 -37.5c22.667 0 46 4.5 70 13.5s46 21.5 66 37.5l40 -105c-22 -19.333 -50.667 -34.5 -86 -45.5s-72.333 -16.5 -111 -16.5c-82.667 0 -147.5 23.333 -194.5 70z
M348.998 571.999h-93l99 206h148z" />
    <glyph glyph-name="Ccircumflex" unicode="&#x108;" horiz-adv-x="685" 
d="M216.5 36.5c-53.667 30.333 -94.834 73 -123.501 128s-43 119.167 -43 192.5c0 72.667 14.333 136.5 43 191.5s69.834 97.5 123.501 127.5s116.5 45 188.5 45c47.333 0 92.5 -7.16699 135.5 -21.5s78.167 -34.5 105.5 -60.5l-49 -112c-32 24 -63.167 41.5 -93.5 52.5
s-62.166 16.5 -95.499 16.5c-64 0 -113 -20.333 -147 -61s-51 -100 -51 -178c0 -78.667 17 -138.5 51 -179.5s83 -61.5 147 -61.5c33.333 0 65.166 5.5 95.499 16.5s61.5 28.5 93.5 52.5l49 -112c-27.333 -26 -62.5 -46.167 -105.5 -60.5s-88.167 -21.5 -135.5 -21.5
c-72 0 -134.833 15.167 -188.5 45.5zM335 773h-114l133 157h87l133 -157h-114l-62 86z" />
    <glyph glyph-name="ccircumflex" unicode="&#x109;" horiz-adv-x="509" 
d="M106.5 62c-47 46.667 -70.502 110.333 -70.502 191c0 52.667 11.333 99.167 34 139.5s54.5 71.666 95.5 93.999s88.5 33.5 142.5 33.5c36.667 0 72.334 -5.66699 107.001 -17s62.334 -26.666 83.001 -45.999l-40 -105c-20 16 -42 28.5 -66 37.5s-47.333 13.5 -70 13.5
c-41.333 0 -73.5 -12.5 -96.5 -37.5s-34.5 -61.5 -34.5 -109.5c0 -48.667 11.333 -85.5 34 -110.5s55 -37.5 97 -37.5c22.667 0 46 4.5 70 13.5s46 21.5 66 37.5l40 -105c-22 -19.333 -50.667 -34.5 -86 -45.5s-72.333 -16.5 -111 -16.5c-82.667 0 -147.5 23.333 -194.5 70z
M243.998 571.999h-118l131 206h91l131 -206h-118l-58 117z" />
    <glyph glyph-name="Cdotaccent" unicode="&#x10a;" horiz-adv-x="685" 
d="M216.5 36.5c-53.667 30.333 -94.834 73 -123.501 128s-43 119.167 -43 192.5c0 72.667 14.333 136.5 43 191.5s69.834 97.5 123.501 127.5s116.5 45 188.5 45c47.333 0 92.5 -7.16699 135.5 -21.5s78.167 -34.5 105.5 -60.5l-49 -112c-32 24 -63.167 41.5 -93.5 52.5
s-62.166 16.5 -95.499 16.5c-64 0 -113 -20.333 -147 -61s-51 -100 -51 -178c0 -78.667 17 -138.5 51 -179.5s83 -61.5 147 -61.5c33.333 0 65.166 5.5 95.499 16.5s61.5 28.5 93.5 52.5l49 -112c-27.333 -26 -62.5 -46.167 -105.5 -60.5s-88.167 -21.5 -135.5 -21.5
c-72 0 -134.833 15.167 -188.5 45.5zM317 923h161v-142h-161v142z" />
    <glyph glyph-name="cdotaccent" unicode="&#x10b;" horiz-adv-x="509" 
d="M106.5 62c-47 46.667 -70.502 110.333 -70.502 191c0 52.667 11.333 99.167 34 139.5s54.5 71.666 95.5 93.999s88.5 33.5 142.5 33.5c36.667 0 72.334 -5.66699 107.001 -17s62.334 -26.666 83.001 -45.999l-40 -105c-20 16 -42 28.5 -66 37.5s-47.333 13.5 -70 13.5
c-41.333 0 -73.5 -12.5 -96.5 -37.5s-34.5 -61.5 -34.5 -109.5c0 -48.667 11.333 -85.5 34 -110.5s55 -37.5 97 -37.5c22.667 0 46 4.5 70 13.5s46 21.5 66 37.5l40 -105c-22 -19.333 -50.667 -34.5 -86 -45.5s-72.333 -16.5 -111 -16.5c-82.667 0 -147.5 23.333 -194.5 70z
M221.998 744.999h161v-142h-161v142z" />
    <glyph glyph-name="Ccaron" unicode="&#x10c;" horiz-adv-x="685" 
d="M216.5 36.5c-53.667 30.333 -94.834 73 -123.501 128s-43 119.167 -43 192.5c0 72.667 14.333 136.5 43 191.5s69.834 97.5 123.501 127.5s116.5 45 188.5 45c47.333 0 92.5 -7.16699 135.5 -21.5s78.167 -34.5 105.5 -60.5l-49 -112c-32 24 -63.167 41.5 -93.5 52.5
s-62.166 16.5 -95.499 16.5c-64 0 -113 -20.333 -147 -61s-51 -100 -51 -178c0 -78.667 17 -138.5 51 -179.5s83 -61.5 147 -61.5c33.333 0 65.166 5.5 95.499 16.5s61.5 28.5 93.5 52.5l49 -112c-27.333 -26 -62.5 -46.167 -105.5 -60.5s-88.167 -21.5 -135.5 -21.5
c-72 0 -134.833 15.167 -188.5 45.5zM460 930h114l-133 -157h-87l-133 157h114l63 -87z" />
    <glyph glyph-name="ccaron" unicode="&#x10d;" horiz-adv-x="509" 
d="M106.5 62c-47 46.667 -70.502 110.333 -70.502 191c0 52.667 11.333 99.167 34 139.5s54.5 71.666 95.5 93.999s88.5 33.5 142.5 33.5c36.667 0 72.334 -5.66699 107.001 -17s62.334 -26.666 83.001 -45.999l-40 -105c-20 16 -42 28.5 -66 37.5s-47.333 13.5 -70 13.5
c-41.333 0 -73.5 -12.5 -96.5 -37.5s-34.5 -61.5 -34.5 -109.5c0 -48.667 11.333 -85.5 34 -110.5s55 -37.5 97 -37.5c22.667 0 46 4.5 70 13.5s46 21.5 66 37.5l40 -105c-22 -19.333 -50.667 -34.5 -86 -45.5s-72.333 -16.5 -111 -16.5c-82.667 0 -147.5 23.333 -194.5 70z
M360.998 777.999h118l-131 -206h-91l-131 206h118l59 -118z" />
    <glyph glyph-name="Dcaron" unicode="&#x10e;" horiz-adv-x="771" 
d="M71 712l275 -0.000976562c78 0 145 -14 201 -42s98.833 -68.667 128.5 -122s44.5 -117 44.5 -191c0 -74.667 -14.667 -138.667 -44 -192s-72 -94.166 -128 -122.499s-123.333 -42.5 -202 -42.5h-275v712zM336 125.999c152 0 228 77 228 231c0 152.667 -76 229 -228 229
h-109v-460h109zM447 929.999h114l-133 -157h-87l-133 157h114l63 -87z" />
    <glyph glyph-name="dcaron" unicode="&#x10f;" horiz-adv-x="630" 
d="M418 736l151 -0.000976562v-736h-149v75c-15.333 -26 -37 -46.333 -65 -61s-59.667 -22 -95 -22c-43.333 0 -82 11.167 -116 33.5s-60.5 53.666 -79.5 93.999s-28.5 86.5 -28.5 138.5s9.5 97.833 28.5 137.5s45.333 70.334 79 92.001s72.5 32.5 116.5 32.5
c34 0 65 -7.16699 93 -21.5s49.667 -34.166 65 -59.499v297zM597 735.999h79l-27 -200h-52v200zM390 145.499c20 25.667 30 62.5 30 110.5c0 47.333 -10.167 83.833 -30.5 109.5s-48.833 38.5 -85.5 38.5c-37.333 0 -66.333 -12.667 -87 -38s-31 -61.333 -31 -108
c0 -48 10.333 -85.167 31 -111.5s49.667 -39.5 87 -39.5s66 12.833 86 38.5z" />
    <glyph glyph-name="Dcroat" unicode="&#x110;" horiz-adv-x="801" 
d="M577 670c56 -28 98.833 -68.668 128.5 -122.001s44.5 -117 44.5 -191c0 -74.667 -14.667 -138.667 -44 -192s-72 -94.166 -128 -122.499s-123 -42.5 -201 -42.5h-276v300h-87v119h87v293h276c77.333 0 144 -14 200 -42zM594 356.999c0 152.667 -76 229 -228 229h-108
v-167h186v-119h-186v-174h108c152 0 228 77 228 231z" />
    <glyph glyph-name="dcroat" unicode="&#x111;" horiz-adv-x="630" 
d="M658 560l-89 -0.000976562v-560h-149v75c-15.333 -26 -37 -46.333 -65 -61s-59.667 -22 -95 -22c-43.333 0 -82 11.167 -116 33.5s-60.5 53.666 -79.5 93.999s-28.5 86.5 -28.5 138.5s9.5 97.833 28.5 137.5s45.333 70.334 79 92.001s72.5 32.5 116.5 32.5
c34 0 65 -7.16699 93 -21.5s49.667 -34.166 65 -59.499v121h-192v105h192v71h151v-71h89v-105zM390 145.499c20 25.667 30 62.5 30 110.5c0 47.333 -10.167 83.833 -30.5 109.5s-48.833 38.5 -85.5 38.5c-37.333 0 -66.333 -12.667 -87 -38s-31 -61.333 -31 -108
c0 -48 10.333 -85.167 31 -111.5s49.667 -39.5 87 -39.5s66 12.833 86 38.5z" />
    <glyph glyph-name="Emacron" unicode="&#x112;" horiz-adv-x="599" 
d="M71 0v712h491v-121h-339v-168h318v-122h-318v-180h339v-121h-491zM175 804v94h315v-94h-315z" />
    <glyph glyph-name="emacron" unicode="&#x113;" horiz-adv-x="550" 
d="M516 241l-333.999 0.000976562c2.66699 -47.333 15 -81.833 37 -103.5s54.667 -32.5 98 -32.5c26 0 52 4.33301 78 13s50 21.334 72 38.001l40 -102c-24 -19.333 -53.833 -34.5 -89.5 -45.5s-71.5 -16.5 -107.5 -16.5c-85.333 0 -152.333 23.5 -201 70.5
s-73 111.167 -73 192.5c0 51.333 10.5 97.166 31.5 137.499s50.5 71.666 88.5 93.999s81 33.5 129 33.5c71.333 0 127.666 -23.167 168.999 -69.5s62 -108.833 62 -187.5v-22zM219.501 389.001c-17.667 -16.667 -29.166 -41 -34.499 -73h201c-8 65.333 -40.333 98 -97 98
c-28.667 0 -51.834 -8.33301 -69.501 -25zM127.002 626.001v94h315v-94h-315z" />
    <glyph glyph-name="Ebreve" unicode="&#x114;" horiz-adv-x="599" 
d="M71 0v712h491v-121h-339v-168h318v-122h-318v-180h339v-121h-491zM220 810c-31.333 18.667 -53.668 46 -67.001 82l70 29c21.333 -32.667 58 -49 110 -49c51.333 0 87.666 16.333 108.999 49l70 -29c-13.333 -36 -35.666 -63.333 -66.999 -82s-68.666 -28 -111.999 -28
c-44 0 -81.667 9.33301 -113 28z" />
    <glyph glyph-name="ebreve" unicode="&#x115;" horiz-adv-x="550" 
d="M516 241l-333.999 0.000976562c2.66699 -47.333 15 -81.833 37 -103.5s54.667 -32.5 98 -32.5c26 0 52 4.33301 78 13s50 21.334 72 38.001l40 -102c-24 -19.333 -53.833 -34.5 -89.5 -45.5s-71.5 -16.5 -107.5 -16.5c-85.333 0 -152.333 23.5 -201 70.5
s-73 111.167 -73 192.5c0 51.333 10.5 97.166 31.5 137.499s50.5 71.666 88.5 93.999s81 33.5 129 33.5c71.333 0 127.666 -23.167 168.999 -69.5s62 -108.833 62 -187.5v-22zM219.501 389.001c-17.667 -16.667 -29.166 -41 -34.499 -73h201c-8 65.333 -40.333 98 -97 98
c-28.667 0 -51.834 -8.33301 -69.501 -25zM167.002 631.001c-34.667 24.667 -57.667 61 -69 109l69 30c29.333 -54 68.666 -81 117.999 -81c48.667 0 87.667 27 117 81l69 -30c-11.333 -47.333 -34.166 -83.5 -68.499 -108.5s-73.5 -37.5 -117.5 -37.5
s-83.333 12.333 -118 37z" />
    <glyph glyph-name="Edotaccent" unicode="&#x116;" horiz-adv-x="599" 
d="M71 0v712h491v-121h-339v-168h318v-122h-318v-180h339v-121h-491zM252 923h161v-142h-161v142z" />
    <glyph glyph-name="edotaccent" unicode="&#x117;" horiz-adv-x="550" 
d="M516 241l-333.999 0.000976562c2.66699 -47.333 15 -81.833 37 -103.5s54.667 -32.5 98 -32.5c26 0 52 4.33301 78 13s50 21.334 72 38.001l40 -102c-24 -19.333 -53.833 -34.5 -89.5 -45.5s-71.5 -16.5 -107.5 -16.5c-85.333 0 -152.333 23.5 -201 70.5
s-73 111.167 -73 192.5c0 51.333 10.5 97.166 31.5 137.499s50.5 71.666 88.5 93.999s81 33.5 129 33.5c71.333 0 127.666 -23.167 168.999 -69.5s62 -108.833 62 -187.5v-22zM219.501 389.001c-17.667 -16.667 -29.166 -41 -34.499 -73h201c-8 65.333 -40.333 98 -97 98
c-28.667 0 -51.834 -8.33301 -69.501 -25zM204.002 745.001h161v-142h-161v142z" />
    <glyph glyph-name="Eogonek" unicode="&#x118;" horiz-adv-x="599" 
d="M601 -178c-32 -14 -65.667 -21 -101 -21c-38 0 -68.833 10.333 -92.5 31s-35.5 47.334 -35.5 80.001c0 35.333 12.667 64.666 38 87.999h-339v712h491v-121h-339v-168h318v-122h-318v-180h339v-121h-22c-22 0 -39.333 -6 -52 -18s-19 -28 -19 -48
c0 -36 19.667 -54 59 -54c18 0 36.667 4.33301 56 13z" />
    <glyph glyph-name="eogonek" unicode="&#x119;" horiz-adv-x="550" 
d="M516 241l-333.998 0.000976562c2.66699 -47.333 15 -81.833 37 -103.5s54.667 -32.5 98 -32.5c26 0 52 4.33301 78 13s50 21.334 72 38.001l40 -101c-5.33301 -5.33301 -11.833 -10.166 -19.5 -14.499s-20.834 -10.833 -39.501 -19.5
c-28 -14 -47.833 -27.833 -59.5 -41.5s-17.5 -29.5 -17.5 -47.5s5.33301 -31.833 16 -41.5s25.667 -14.5 45 -14.5s38.333 4.66699 57 14l17 -72c-32.667 -14.667 -66.667 -22 -102 -22c-38.667 0 -70.167 10.667 -94.5 32s-36.5 48.666 -36.5 81.999
c0 32.667 11.667 60 35 82c-84.667 0.666992 -151.167 24.5 -199.5 71.5s-72.5 110.833 -72.5 191.5c0 51.333 10.5 97.166 31.5 137.499s50.5 71.666 88.5 93.999s81 33.5 129 33.5c71.333 0 127.666 -23.167 168.999 -69.5s62 -108.833 62 -187.5v-22zM220.502 389.001
c-17.667 -16.667 -29.5 -41 -35.5 -73h201c-8 65.333 -40.333 98 -97 98c-28 0 -50.833 -8.33301 -68.5 -25z" />
    <glyph glyph-name="Ecaron" unicode="&#x11a;" horiz-adv-x="599" 
d="M71 0v712h491v-121h-339v-168h318v-122h-318v-180h339v-121h-491zM395 930h114l-133 -157h-87l-133 157h114l63 -87z" />
    <glyph glyph-name="ecaron" unicode="&#x11b;" horiz-adv-x="550" 
d="M516 241l-333.999 0.000976562c2.66699 -47.333 15 -81.833 37 -103.5s54.667 -32.5 98 -32.5c26 0 52 4.33301 78 13s50 21.334 72 38.001l40 -102c-24 -19.333 -53.833 -34.5 -89.5 -45.5s-71.5 -16.5 -107.5 -16.5c-85.333 0 -152.333 23.5 -201 70.5
s-73 111.167 -73 192.5c0 51.333 10.5 97.166 31.5 137.499s50.5 71.666 88.5 93.999s81 33.5 129 33.5c71.333 0 127.666 -23.167 168.999 -69.5s62 -108.833 62 -187.5v-22zM219.501 389.001c-17.667 -16.667 -29.166 -41 -34.499 -73h201c-8 65.333 -40.333 98 -97 98
c-28.667 0 -51.834 -8.33301 -69.501 -25zM343.002 778.001h118l-131 -206h-91l-131 206h118l59 -118z" />
    <glyph glyph-name="Gcircumflex" unicode="&#x11c;" horiz-adv-x="745" 
d="M682 393v-349.001c-34.667 -16.667 -75.167 -29.667 -121.5 -39s-93.833 -14 -142.5 -14c-75.333 0 -140.666 14.667 -195.999 44s-97.833 71.333 -127.5 126s-44.5 120 -44.5 196c0 74 14.833 138.333 44.5 193s71.667 96.834 126 126.501s117.833 44.5 190.5 44.5
c51.333 0 99.166 -7 143.499 -21s80.833 -33.667 109.5 -59l-50 -112c-33.333 24 -65.666 41.333 -96.999 52s-65.333 16 -102 16c-137.333 0 -206 -80 -206 -240c0 -163.333 71.667 -245 215 -245c39.333 0 78.666 5 117.999 15v157h-140v109h280zM348 772.999h-114
l133 157h87l133 -157h-114l-62 86z" />
    <glyph glyph-name="gcircumflex" unicode="&#x11d;" horiz-adv-x="634" 
d="M574 507l0.00195312 -483.999c0 -80.667 -23.333 -142 -70 -184s-114.667 -63 -204 -63c-80.667 0 -150.667 15.667 -210 47l23 112c61.333 -30.667 122 -46 182 -46c43.333 0 75.666 10.167 96.999 30.5s32 51.166 32 92.499v88c-16 -24.667 -38.333 -45.167 -67 -61.5
s-60.334 -24.5 -95.001 -24.5c-44 0 -83 10.5 -117 31.5s-60.667 50.667 -80 89s-29 82.5 -29 132.5s9.66699 94.167 29 132.5s46 68 80 89s73 31.5 117 31.5c35.333 0 67.333 -7.66699 96 -23s50.667 -36 66 -62v72h150zM392.502 165.501
c21 24.333 31.5 58.168 31.5 101.501c0 42.667 -10.333 76.167 -31 100.5s-49.667 36.5 -87 36.5s-66.666 -12.167 -87.999 -36.5s-32 -57.833 -32 -100.5s10.667 -76.334 32 -101.001s50.666 -37 87.999 -37c36.667 0 65.5 12.167 86.5 36.5zM259.002 572.003h-118l131 206
h91l131 -206h-118l-58 117z" />
    <glyph glyph-name="Gbreve" unicode="&#x11e;" horiz-adv-x="745" 
d="M682 393v-349.001c-34.667 -16.667 -75.167 -29.667 -121.5 -39s-93.833 -14 -142.5 -14c-75.333 0 -140.666 14.667 -195.999 44s-97.833 71.333 -127.5 126s-44.5 120 -44.5 196c0 74 14.833 138.333 44.5 193s71.667 96.834 126 126.501s117.833 44.5 190.5 44.5
c51.333 0 99.166 -7 143.499 -21s80.833 -33.667 109.5 -59l-50 -112c-33.333 24 -65.666 41.333 -96.999 52s-65.333 16 -102 16c-137.333 0 -206 -80 -206 -240c0 -163.333 71.667 -245 215 -245c39.333 0 78.666 5 117.999 15v157h-140v109h280zM298 809.999
c-31.333 18.667 -53.668 46 -67.001 82l70 29c21.333 -32.667 58 -49 110 -49c51.333 0 87.666 16.333 108.999 49l70 -29c-13.333 -36 -35.666 -63.333 -66.999 -82s-68.666 -28 -111.999 -28c-44 0 -81.667 9.33301 -113 28z" />
    <glyph glyph-name="gbreve" unicode="&#x11f;" horiz-adv-x="634" 
d="M574 507l0.00195312 -483.999c0 -80.667 -23.333 -142 -70 -184s-114.667 -63 -204 -63c-80.667 0 -150.667 15.667 -210 47l23 112c61.333 -30.667 122 -46 182 -46c43.333 0 75.666 10.167 96.999 30.5s32 51.166 32 92.499v88c-16 -24.667 -38.333 -45.167 -67 -61.5
s-60.334 -24.5 -95.001 -24.5c-44 0 -83 10.5 -117 31.5s-60.667 50.667 -80 89s-29 82.5 -29 132.5s9.66699 94.167 29 132.5s46 68 80 89s73 31.5 117 31.5c35.333 0 67.333 -7.66699 96 -23s50.667 -36 66 -62v72h150zM392.502 165.501
c21 24.333 31.5 58.168 31.5 101.501c0 42.667 -10.333 76.167 -31 100.5s-49.667 36.5 -87 36.5s-66.666 -12.167 -87.999 -36.5s-32 -57.833 -32 -100.5s10.667 -76.334 32 -101.001s50.666 -37 87.999 -37c36.667 0 65.5 12.167 86.5 36.5zM200.002 631.003
c-34.667 24.667 -57.667 61 -69 109l69 30c29.333 -54 68.666 -81 117.999 -81c48.667 0 87.667 27 117 81l69 -30c-11.333 -47.333 -34.166 -83.5 -68.499 -108.5s-73.5 -37.5 -117.5 -37.5s-83.333 12.333 -118 37z" />
    <glyph glyph-name="Gdotaccent" unicode="&#x120;" horiz-adv-x="745" 
d="M682 393v-349.001c-34.667 -16.667 -75.167 -29.667 -121.5 -39s-93.833 -14 -142.5 -14c-75.333 0 -140.666 14.667 -195.999 44s-97.833 71.333 -127.5 126s-44.5 120 -44.5 196c0 74 14.833 138.333 44.5 193s71.667 96.834 126 126.501s117.833 44.5 190.5 44.5
c51.333 0 99.166 -7 143.499 -21s80.833 -33.667 109.5 -59l-50 -112c-33.333 24 -65.666 41.333 -96.999 52s-65.333 16 -102 16c-137.333 0 -206 -80 -206 -240c0 -163.333 71.667 -245 215 -245c39.333 0 78.666 5 117.999 15v157h-140v109h280zM330 922.999h161v-142
h-161v142z" />
    <glyph glyph-name="gdotaccent" unicode="&#x121;" horiz-adv-x="634" 
d="M574 507l0.00195312 -483.999c0 -80.667 -23.333 -142 -70 -184s-114.667 -63 -204 -63c-80.667 0 -150.667 15.667 -210 47l23 112c61.333 -30.667 122 -46 182 -46c43.333 0 75.666 10.167 96.999 30.5s32 51.166 32 92.499v88c-16 -24.667 -38.333 -45.167 -67 -61.5
s-60.334 -24.5 -95.001 -24.5c-44 0 -83 10.5 -117 31.5s-60.667 50.667 -80 89s-29 82.5 -29 132.5s9.66699 94.167 29 132.5s46 68 80 89s73 31.5 117 31.5c35.333 0 67.333 -7.66699 96 -23s50.667 -36 66 -62v72h150zM392.502 165.501
c21 24.333 31.5 58.168 31.5 101.501c0 42.667 -10.333 76.167 -31 100.5s-49.667 36.5 -87 36.5s-66.666 -12.167 -87.999 -36.5s-32 -57.833 -32 -100.5s10.667 -76.334 32 -101.001s50.666 -37 87.999 -37c36.667 0 65.5 12.167 86.5 36.5zM237.002 745.003h161v-142
h-161v142z" />
    <glyph glyph-name="Gcommaaccent" unicode="&#x122;" horiz-adv-x="745" 
d="M682 393v-349.001c-34.667 -16.667 -75.167 -29.667 -121.5 -39s-93.833 -14 -142.5 -14c-75.333 0 -140.666 14.667 -195.999 44s-97.833 71.333 -127.5 126s-44.5 120 -44.5 196c0 74 14.833 138.333 44.5 193s71.667 96.834 126 126.501s117.833 44.5 190.5 44.5
c51.333 0 99.166 -7 143.499 -21s80.833 -33.667 109.5 -59l-50 -112c-33.333 24 -65.666 41.333 -96.999 52s-65.333 16 -102 16c-137.333 0 -206 -80 -206 -240c0 -163.333 71.667 -245 215 -245c39.333 0 78.666 5 117.999 15v157h-140v109h280zM492 -67.001v-64.001
c0 -31.333 -4.5 -58.666 -13.5 -81.999s-24.5 -45 -46.5 -65l-55 38c19.333 18 31 37.667 35 59h-70v114h150z" />
    <glyph glyph-name="gcommaaccent" unicode="&#x123;" horiz-adv-x="634" 
d="M574 507l0.00195312 -483.999c0 -80.667 -23.333 -142 -70 -184s-114.667 -63 -204 -63c-80.667 0 -150.667 15.667 -210 47l23 112c61.333 -30.667 122 -46 182 -46c43.333 0 75.666 10.167 96.999 30.5s32 51.166 32 92.499v88c-16 -24.667 -38.333 -45.167 -67 -61.5
s-60.334 -24.5 -95.001 -24.5c-44 0 -83 10.5 -117 31.5s-60.667 50.667 -80 89s-29 82.5 -29 132.5s9.66699 94.167 29 132.5s46 68 80 89s73 31.5 117 31.5c35.333 0 67.333 -7.66699 96 -23s50.667 -36 66 -62v72h150zM392.502 165.501
c21 24.333 31.5 58.168 31.5 101.501c0 42.667 -10.333 76.167 -31 100.5s-49.667 36.5 -87 36.5s-66.666 -12.167 -87.999 -36.5s-32 -57.833 -32 -100.5s10.667 -76.334 32 -101.001s50.666 -37 87.999 -37c36.667 0 65.5 12.167 86.5 36.5zM392.002 715.003
l0.000976562 -114h-150v64c0 31.333 4.5 58.833 13.5 82.5s24.5 45.167 46.5 64.5l55 -37c-18.667 -18 -30.334 -38 -35.001 -60h70z" />
    <glyph glyph-name="Hcircumflex" unicode="&#x124;" horiz-adv-x="779" 
d="M554 712h153v-712h-153v299h-330v-299h-153v712h153v-288h330v288zM326 773h-114l133 157h87l133 -157h-114l-62 86z" />
    <glyph glyph-name="hcircumflex" unicode="&#x125;" horiz-adv-x="613" 
d="M554 307v-306.999h-151v300c0 35.333 -6.5 61.166 -19.5 77.499s-33.5 24.5 -61.5 24.5c-33.333 0 -60 -10.667 -80 -32s-30 -50 -30 -86v-284h-151v736h151v-298c18 26.667 41 47 69 61s59 21 93 21c120 0 180 -71 180 -213zM76 797.001h-114l133 157h87l133 -157h-114
l-62 86z" />
    <glyph glyph-name="Hbar" unicode="&#x126;" horiz-adv-x="838" 
d="M824 628v-115h-87v-513h-153v299h-329v-299h-154v513h-87v115h87v84h154v-84h329v84h153v-84h87zM584 424v89h-329v-89h329z" />
    <glyph glyph-name="hbar" unicode="&#x127;" horiz-adv-x="613" 
d="M554 307v-306.999h-151v300c0 35.333 -6.5 61.166 -19.5 77.499s-33.5 24.5 -61.5 24.5c-33.333 0 -60 -10.667 -80 -32s-30 -50 -30 -86v-284h-151v560h-88v105h88v71h151v-71h192v-105h-192v-122c18 26.667 41 47 69 61s59 21 93 21c120 0 180 -71 180 -213z" />
    <glyph glyph-name="Itilde" unicode="&#x128;" horiz-adv-x="299" 
d="M71 0v712h156v-712h-156zM2.5 890c20.333 24.667 46.5 37 78.5 37c12.667 0 25.167 -2.66699 37.5 -8s25.5 -12.666 39.5 -21.999c14.667 -8 25.834 -13.833 33.501 -17.5s15.5 -5.5 23.5 -5.5c12.667 0 22.834 4.5 30.501 13.5s12.167 21.167 13.5 36.5h64
c0 -48.667 -10.167 -85.334 -30.5 -110.001s-46.5 -37 -78.5 -37c-12.667 0 -25.167 2.66699 -37.5 8s-25.5 12.666 -39.5 21.999c-14.667 8 -25.834 13.833 -33.501 17.5s-15.5 5.5 -23.5 5.5c-12.667 0 -22.834 -4.5 -30.501 -13.5s-12.167 -21.167 -13.5 -36.5h-64
c0 48.667 10.167 85.334 30.5 110.001z" />
    <glyph glyph-name="itilde" unicode="&#x129;" horiz-adv-x="274" 
d="M61 0v507h151v-507h-151zM-8.5 713.5c20.333 24.333 46.5 36.5 78.5 36.5c12.667 0 24.834 -2.5 36.501 -7.5s25.167 -12.167 40.5 -21.5c14.667 -8 25.834 -13.833 33.501 -17.5s15.5 -5.5 23.5 -5.5c12.667 0 22.834 4.33301 30.501 13s12.167 20.667 13.5 36h64
c0 -48 -10.167 -84.333 -30.5 -109s-46.5 -37 -78.5 -37c-12.667 0 -24.834 2.5 -36.501 7.5s-25.167 12.167 -40.5 21.5c-14.667 8 -25.834 13.833 -33.501 17.5s-15.5 5.5 -23.5 5.5c-12.667 0 -22.834 -4.33301 -30.501 -13s-12.167 -20.667 -13.5 -36h-64
c0 48.667 10.167 85.167 30.5 109.5z" />
    <glyph glyph-name="Imacron" unicode="&#x12a;" horiz-adv-x="299" 
d="M71 0v712h156v-712h-156zM-10 804v94h315v-94h-315z" />
    <glyph glyph-name="imacron" unicode="&#x12b;" horiz-adv-x="274" 
d="M61 0v507h151v-507h-151zM-21 626v94h315v-94h-315z" />
    <glyph glyph-name="Ibreve" unicode="&#x12c;" horiz-adv-x="299" 
d="M71 0v712h156v-712h-156zM35 810c-31.333 18.667 -53.668 46 -67.001 82l70 29c21.333 -32.667 58 -49 110 -49c51.333 0 87.666 16.333 108.999 49l70 -29c-13.333 -36 -35.666 -63.333 -66.999 -82s-68.666 -28 -111.999 -28c-44 0 -81.667 9.33301 -113 28z" />
    <glyph glyph-name="ibreve" unicode="&#x12d;" horiz-adv-x="274" 
d="M61 0v507h151v-507h-151zM19 631c-34.667 24.667 -57.667 61 -69 109l69 30c29.333 -54 68.666 -81 117.999 -81c48.667 0 87.667 27 117 81l69 -30c-11.333 -47.333 -34.166 -83.5 -68.499 -108.5s-73.5 -37.5 -117.5 -37.5s-83.333 12.333 -118 37z" />
    <glyph glyph-name="Iogonek" unicode="&#x12e;" horiz-adv-x="299" 
d="M261 -178c-32 -14 -65.668 -21.002 -101.001 -21.002c-37.333 0 -68.166 10.333 -92.499 31s-36.5 48 -36.5 82c0 34.667 13.333 64.334 40 89.001v709h156v-712h-14c-25.333 0 -45.833 -6.16699 -61.5 -18.5s-23.5 -28.166 -23.5 -47.499c0 -18 5.33301 -31.5 16 -40.5
s25.667 -13.5 45 -13.5c18 0 36 4.33301 54 13z" />
    <glyph glyph-name="iogonek" unicode="&#x12f;" horiz-adv-x="274" 
d="M218 749v-143h-162v143h162zM251 -182c-32.667 -14.667 -66.667 -22 -102 -22c-38 0 -69.167 10.667 -93.5 32s-36.5 49.333 -36.5 84c0 36 14 66.667 42 92v503h151v-507h-9c-26.667 0 -47.834 -6.33301 -63.501 -19s-23.5 -29 -23.5 -49
c0 -18 5.33301 -31.833 16 -41.5s26 -14.5 46 -14.5c18.667 0 37.334 4.66699 56.001 14z" />
    <glyph glyph-name="Idotaccent" unicode="&#x130;" horiz-adv-x="299" 
d="M71 0v712h156v-712h-156zM67 923h161v-142h-161v142z" />
    <glyph glyph-name="dotlessi" unicode="&#x131;" horiz-adv-x="274" 
d="M61 0v507h151v-507h-151z" />
    <glyph glyph-name="Jcircumflex" unicode="&#x134;" horiz-adv-x="381" 
d="M0 -53c28 -4 51.666 -5.99902 70.999 -5.99902c32 0 53.667 7.16699 65 21.5s17 40.166 17 77.499v672h156v-670c0 -79.333 -15.667 -137.5 -47 -174.5s-84.666 -55.5 -159.999 -55.5c-30 0 -64 3 -102 9v126zM166.999 773.001h-114l133 157h87l133 -157h-114l-62 86z
" />
    <glyph glyph-name="jcircumflex" unicode="&#x135;" horiz-adv-x="274" 
d="M-16 -100c22.667 0 41.1689 6.66699 55.502 20s21.5 34 21.5 62v525h151v-529c0 -64 -16.333 -113.667 -49 -149s-80 -53 -142 -53c-34.667 0 -63.334 4.33301 -86.001 13v118c19.333 -4.66699 35.666 -7 48.999 -7zM77.002 572h-118l131 206h91l131 -206h-118l-58 117z
" />
    <glyph glyph-name="Kcommaaccent" unicode="&#x136;" horiz-adv-x="685" 
d="M725 0h-188l-310 329v-329h-156v712h156v-313l299 313h186l-331 -340zM418 -67v-64.001c0 -31.333 -4.5 -58.666 -13.5 -81.999s-24.5 -45 -46.5 -65l-55 38c19.333 18 31 37.667 35 59h-70v114h150z" />
    <glyph glyph-name="kcommaaccent" unicode="&#x137;" horiz-adv-x="573" 
d="M596 0h-185l-199 227v-227h-151v736h151v-447l190 217h181l-215 -243zM360 -67v-64.001c0 -31.333 -4.5 -58.666 -13.5 -81.999s-24.5 -45 -46.5 -65l-55 38c19.333 18 31 37.667 35 59h-70v114h150z" />
    <glyph glyph-name="kgreenlandic" unicode="&#x138;" horiz-adv-x="573" 
d="M596 0h-185l-199 227v-227h-151v507h151v-218l190 217h181l-215 -243z" />
    <glyph glyph-name="Lacute" unicode="&#x139;" horiz-adv-x="569" 
d="M71 0v712h156v-585h318v-127h-474zM194 773h-93l103 157h140z" />
    <glyph glyph-name="lacute" unicode="&#x13a;" horiz-adv-x="274" 
d="M61 0v736h151v-736h-151zM183 797h-93l103 157h140z" />
    <glyph glyph-name="Lcommaaccent" unicode="&#x13b;" horiz-adv-x="569" 
d="M71 0v712h156v-585h318v-127h-474zM390 -67v-64.001c0 -31.333 -4.5 -58.666 -13.5 -81.999s-24.5 -45 -46.5 -65l-55 38c19.333 18 31 37.667 35 59h-70v114h150z" />
    <glyph glyph-name="lcommaaccent" unicode="&#x13c;" horiz-adv-x="274" 
d="M61 0v736h151v-736h-151zM211 -67v-64.001c0 -31.333 -4.5 -58.666 -13.5 -81.999s-24.5 -45 -46.5 -65l-55 38c19.333 18 31 37.667 35 59h-70v114h150z" />
    <glyph glyph-name="Lcaron" unicode="&#x13d;" horiz-adv-x="569" 
d="M71 0v712h156v-585h318v-127h-474zM387 516h-71v196h97z" />
    <glyph glyph-name="lcaron" unicode="&#x13e;" horiz-adv-x="274" 
d="M61 0v736h151v-736h-151zM293 536h-53v200h79z" />
    <glyph glyph-name="Ldot" unicode="&#x13f;" horiz-adv-x="569" 
d="M71 0v712h156v-585h318v-127h-474zM313 427h161v-141h-161v141z" />
    <glyph glyph-name="ldot" unicode="&#x140;" horiz-adv-x="379" 
d="M61 0v736h151v-736h-151zM242 428h161v-141h-161v141z" />
    <glyph glyph-name="Lslash" unicode="&#x141;" horiz-adv-x="600" 
d="M258 127h318v-127h-475v247l-91 -52v133l91 53v331h157v-240l184 106v-134l-184 -106v-211z" />
    <glyph glyph-name="lslash" unicode="&#x142;" horiz-adv-x="358" 
d="M374 411l-120 -69v-342h-151v255l-63 -36l-56 101l119 69v347h151v-259l63 37z" />
    <glyph glyph-name="Nacute" unicode="&#x143;" horiz-adv-x="760" 
d="M541 712h147v-712h-116l-355 454v-454h-146v712h115l355 -453v453zM425 773h-93l103 157h140z" />
    <glyph glyph-name="nacute" unicode="&#x144;" horiz-adv-x="613" 
d="M554 307v-306.999h-151v300c0 35.333 -6.5 61.166 -19.5 77.499s-33.5 24.5 -61.5 24.5c-33.333 0 -60 -10.667 -80 -32s-30 -50 -30 -86v-284h-151v362c0 54 -2.66699 102.333 -8 145h142l10 -80c18 30 41.5 53 70.5 69s61.833 24 98.5 24c120 0 180 -71 180 -213z
M354 572.001h-93l99 206h148z" />
    <glyph glyph-name="Ncommaaccent" unicode="&#x145;" horiz-adv-x="760" 
d="M541 712h147v-712h-116l-355 454v-454h-146v712h115l355 -453v453zM454 -67v-64.001c0 -31.333 -4.5 -58.666 -13.5 -81.999s-24.5 -45 -46.5 -65l-55 38c19.333 18 31 37.667 35 59h-70v114h150z" />
    <glyph glyph-name="ncommaaccent" unicode="&#x146;" horiz-adv-x="613" 
d="M554 307v-306.999h-151v300c0 35.333 -6.5 61.166 -19.5 77.499s-33.5 24.5 -61.5 24.5c-33.333 0 -60 -10.667 -80 -32s-30 -50 -30 -86v-284h-151v362c0 54 -2.66699 102.333 -8 145h142l10 -80c18 30 41.5 53 70.5 69s61.833 24 98.5 24c120 0 180 -71 180 -213z
M382 -66.999v-64.001c0 -31.333 -4.5 -58.666 -13.5 -81.999s-24.5 -45 -46.5 -65l-55 38c19.333 18 31 37.667 35 59h-70v114h150z" />
    <glyph glyph-name="Ncaron" unicode="&#x147;" horiz-adv-x="760" 
d="M541 712h147v-712h-116l-355 454v-454h-146v712h115l355 -453v453zM441 930h114l-133 -157h-87l-133 157h114l63 -87z" />
    <glyph glyph-name="ncaron" unicode="&#x148;" horiz-adv-x="613" 
d="M554 307v-306.999h-151v300c0 35.333 -6.5 61.166 -19.5 77.499s-33.5 24.5 -61.5 24.5c-33.333 0 -60 -10.667 -80 -32s-30 -50 -30 -86v-284h-151v362c0 54 -2.66699 102.333 -8 145h142l10 -80c18 30 41.5 53 70.5 69s61.833 24 98.5 24c120 0 180 -71 180 -213z
M366 778.001h118l-131 -206h-91l-131 206h118l59 -118z" />
    <glyph glyph-name="napostrophe" unicode="&#x149;" horiz-adv-x="613" 
d="M224 767v-65c0 -31.333 -4.5 -58.666 -13.5 -81.999s-24.5 -45 -46.5 -65l-55 39c19.333 17.333 31 36.666 35 57.999h-70v115h150zM554 307v-306.999h-151v300c0 35.333 -6.5 61.166 -19.5 77.499s-33.5 24.5 -61.5 24.5c-33.333 0 -60 -10.667 -80 -32s-30 -50 -30 -86
v-284h-151v362c0 54 -2.66699 102.333 -8 145h142l10 -80c18 30 41.5 53 70.5 69s61.833 24 98.5 24c120 0 180 -71 180 -213z" />
    <glyph glyph-name="Eng" unicode="&#x14a;" horiz-adv-x="760" 
d="M688 712v-684.001c0 -134 -70.333 -205 -211 -213l-92 -5l-10 118l76 5c28.667 1.33301 50.667 9.83301 66 25.5s23 36.834 23 63.501v20l-323 412v-454h-146v712h115l355 -453v453h147z" />
    <glyph glyph-name="eng" unicode="&#x14b;" horiz-adv-x="613" 
d="M554 307v-307.999c0 -74 -16 -129.667 -48 -167s-79.333 -56 -142 -56c-32 0 -61 3.33301 -87 10v121c18.667 -4.66699 35 -7 49 -7c51.333 0 77 34 77 102v298c0 35.333 -6.5 61.166 -19.5 77.499s-33.5 24.5 -61.5 24.5c-33.333 0 -60 -10.667 -80 -32s-30 -50 -30 -86
v-284h-151v362c0 54 -2.66699 102.333 -8 145h142l10 -80c18 30 41.5 53 70.5 69s61.833 24 98.5 24c120 0 180 -71 180 -213z" />
    <glyph glyph-name="Omacron" unicode="&#x14c;" horiz-adv-x="795" 
d="M213.5 35.5c-52.333 29.667 -92.666 72.167 -120.999 127.5s-42.5 120 -42.5 194s14.167 138.333 42.5 193s68.666 96.834 120.999 126.501s113.833 44.5 184.5 44.5s132 -14.833 184 -44.5s92 -71.834 120 -126.501s42 -119 42 -193s-14 -138.667 -42 -194
s-68 -97.833 -120 -127.5s-113.333 -44.5 -184 -44.5s-132.167 14.833 -184.5 44.5zM538.5 176c33.667 42 50.5 102.333 50.5 181s-16.833 138.667 -50.5 180s-80.5 62 -140.5 62s-106.833 -20.667 -140.5 -62s-50.5 -101.333 -50.5 -180
c0 -79.333 16.833 -139.833 50.5 -181.5s80.5 -62.5 140.5 -62.5s106.833 21 140.5 63zM239 804v94h315v-94h-315z" />
    <glyph glyph-name="omacron" unicode="&#x14d;" horiz-adv-x="604" 
d="M161.5 24c-40.333 21.333 -71.333 52 -93 92s-32.5 86.667 -32.5 140s10.833 100 32.5 140s52.667 70.667 93 92s87.5 32 141.5 32c53.333 0 100 -10.667 140 -32s70.833 -52 92.5 -92s32.5 -86.667 32.5 -140s-10.833 -100 -32.5 -140s-52.5 -70.667 -92.5 -92
s-86.667 -32 -140 -32c-54 0 -101.167 10.667 -141.5 32zM388.5 144c19.667 24.667 29.5 62 29.5 112c0 49.333 -9.83301 86.5 -29.5 111.5s-48.167 37.5 -85.5 37.5c-38 0 -67 -12.5 -87 -37.5s-30 -62.167 -30 -111.5c0 -99.333 39 -149 117 -149
c37.333 0 65.833 12.333 85.5 37zM145 626v94h315v-94h-315z" />
    <glyph glyph-name="Obreve" unicode="&#x14e;" horiz-adv-x="795" 
d="M213.5 35.5c-52.333 29.667 -92.666 72.167 -120.999 127.5s-42.5 120 -42.5 194s14.167 138.333 42.5 193s68.666 96.834 120.999 126.501s113.833 44.5 184.5 44.5s132 -14.833 184 -44.5s92 -71.834 120 -126.501s42 -119 42 -193s-14 -138.667 -42 -194
s-68 -97.833 -120 -127.5s-113.333 -44.5 -184 -44.5s-132.167 14.833 -184.5 44.5zM538.5 176c33.667 42 50.5 102.333 50.5 181s-16.833 138.667 -50.5 180s-80.5 62 -140.5 62s-106.833 -20.667 -140.5 -62s-50.5 -101.333 -50.5 -180
c0 -79.333 16.833 -139.833 50.5 -181.5s80.5 -62.5 140.5 -62.5s106.833 21 140.5 63zM284 810c-31.333 18.667 -53.668 46 -67.001 82l70 29c21.333 -32.667 58 -49 110 -49c51.333 0 87.666 16.333 108.999 49l70 -29c-13.333 -36 -35.666 -63.333 -66.999 -82
s-68.666 -28 -111.999 -28c-44 0 -81.667 9.33301 -113 28z" />
    <glyph glyph-name="obreve" unicode="&#x14f;" horiz-adv-x="604" 
d="M161.5 24c-40.333 21.333 -71.333 52 -93 92s-32.5 86.667 -32.5 140s10.833 100 32.5 140s52.667 70.667 93 92s87.5 32 141.5 32c53.333 0 100 -10.667 140 -32s70.833 -52 92.5 -92s32.5 -86.667 32.5 -140s-10.833 -100 -32.5 -140s-52.5 -70.667 -92.5 -92
s-86.667 -32 -140 -32c-54 0 -101.167 10.667 -141.5 32zM388.5 144c19.667 24.667 29.5 62 29.5 112c0 49.333 -9.83301 86.5 -29.5 111.5s-48.167 37.5 -85.5 37.5c-38 0 -67 -12.5 -87 -37.5s-30 -62.167 -30 -111.5c0 -99.333 39 -149 117 -149
c37.333 0 65.833 12.333 85.5 37zM185 631c-34.667 24.667 -57.667 61 -69 109l69 30c29.333 -54 68.666 -81 117.999 -81c48.667 0 87.667 27 117 81l69 -30c-11.333 -47.333 -34.166 -83.5 -68.499 -108.5s-73.5 -37.5 -117.5 -37.5s-83.333 12.333 -118 37z" />
    <glyph glyph-name="Ohungarumlaut" unicode="&#x150;" horiz-adv-x="795" 
d="M213.5 35.5c-52.333 29.667 -92.666 72.167 -120.999 127.5s-42.5 120 -42.5 194s14.167 138.333 42.5 193s68.666 96.834 120.999 126.501s113.833 44.5 184.5 44.5s132 -14.833 184 -44.5s92 -71.834 120 -126.501s42 -119 42 -193s-14 -138.667 -42 -194
s-68 -97.833 -120 -127.5s-113.333 -44.5 -184 -44.5s-132.167 14.833 -184.5 44.5zM538.5 176c33.667 42 50.5 102.333 50.5 181s-16.833 138.667 -50.5 180s-80.5 62 -140.5 62s-106.833 -20.667 -140.5 -62s-50.5 -101.333 -50.5 -180
c0 -79.333 16.833 -139.833 50.5 -181.5s80.5 -62.5 140.5 -62.5s106.833 21 140.5 63zM289 773l74 157h101l-100 -157h-75zM429 773l74 157h102l-101 -157h-75z" />
    <glyph glyph-name="ohungarumlaut" unicode="&#x151;" horiz-adv-x="604" 
d="M161.5 24c-40.333 21.333 -71.333 52 -93 92s-32.5 86.667 -32.5 140s10.833 100 32.5 140s52.667 70.667 93 92s87.5 32 141.5 32c53.333 0 100 -10.667 140 -32s70.833 -52 92.5 -92s32.5 -86.667 32.5 -140s-10.833 -100 -32.5 -140s-52.5 -70.667 -92.5 -92
s-86.667 -32 -140 -32c-54 0 -101.167 10.667 -141.5 32zM388.5 144c19.667 24.667 29.5 62 29.5 112c0 49.333 -9.83301 86.5 -29.5 111.5s-48.167 37.5 -85.5 37.5c-38 0 -67 -12.5 -87 -37.5s-30 -62.167 -30 -111.5c0 -99.333 39 -149 117 -149
c37.333 0 65.833 12.333 85.5 37zM265 572h-65l35 206h109zM405 572h-65l34 206h109z" />
    <glyph glyph-name="OE" unicode="&#x152;" horiz-adv-x="1054" 
d="M679 591v-168.001h318v-122h-318v-180h338v-121h-481v37c-38 -30.667 -90.333 -46 -157 -46c-64 0 -121 15.333 -171 46s-88.833 73.834 -116.5 129.501s-41.5 119.167 -41.5 190.5c0 70.667 13.833 133.667 41.5 189s66.5 98.333 116.5 129s107 46 171 46
c66 0 118.333 -14.667 157 -44v35h481v-121h-338zM256.5 175.999c33 -42 80.167 -63 141.5 -63c53.333 0 96.333 11.667 129 35v416c-32.667 23.333 -75.667 35 -129 35c-61.333 0 -108.5 -21 -141.5 -63s-49.5 -101.667 -49.5 -179c0 -78.667 16.5 -139 49.5 -181z" />
    <glyph glyph-name="oe" unicode="&#x153;" horiz-adv-x="929" 
d="M894 225h-327.002c4.66699 -42 17 -72.5 37 -91.5s48.667 -28.5 86 -28.5c56.667 0 108.334 17 155.001 51l41 -102c-24 -19.333 -53.833 -34.5 -89.5 -45.5s-71.5 -16.5 -107.5 -16.5c-88 0 -153.667 28.667 -197 86c-21.333 -28 -48.333 -49.333 -81 -64
s-70 -22 -112 -22c-53.333 0 -99.833 10.833 -139.5 32.5s-70.167 52.334 -91.5 92.001s-32 86.167 -32 139.5s10.667 99.833 32 139.5s51.833 70.334 91.5 92.001s86.167 32.5 139.5 32.5c42.667 0 80.334 -7.5 113.001 -22.5s59.667 -36.833 81 -65.5
c20.667 28 46.667 49.667 78 65s66.333 23 105 23c42.667 0 80.5 -10.833 113.5 -32.5s58.667 -51.834 77 -90.501s27.5 -83.334 27.5 -134.001v-38zM599.998 385c-18 -19.333 -29 -47.333 -33 -84h199c-2 36.667 -11 64.667 -27 84s-38 29 -66 29
c-30.667 0 -55 -9.66699 -73 -29zM413.998 256c0 49.333 -9.66699 86.5 -29 111.5s-47.333 37.5 -84 37.5c-37.333 0 -65.833 -12.5 -85.5 -37.5s-29.5 -62.167 -29.5 -111.5c0 -50 9.83301 -87.333 29.5 -112s48.167 -37 85.5 -37c75.333 0 113 49.667 113 149z" />
    <glyph glyph-name="Racute" unicode="&#x154;" horiz-adv-x="708" 
d="M672 0h-165.001l-91 237c-7.33301 18.667 -18.5 31.667 -33.5 39s-33.833 11 -56.5 11h-101v-287h-154v712h317c82.667 0 145.334 -18 188.001 -54s64 -87.667 64 -155c0 -47.333 -12.5 -88 -37.5 -122s-60.833 -58.333 -107.5 -73c42 -8.66699 72.333 -37.667 91 -87z
M364.999 406c44.667 0 77.334 7.5 98.001 22.5s31 38.5 31 70.5s-10.333 55.5 -31 70.5s-53.334 22.5 -98.001 22.5h-142v-186h142zM401.999 773h-93l103 157h140z" />
    <glyph glyph-name="racute" unicode="&#x155;" horiz-adv-x="410" 
d="M410 509l-0.999023 -137.999c-24.667 11.333 -49.334 17 -74.001 17c-40 0 -70.5 -10.833 -91.5 -32.5s-31.5 -51.834 -31.5 -90.501v-265h-151v362c0 54 -2.66699 102.333 -8 145h142l10 -87c12.667 32 32.5 56.5 59.5 73.5s57.5 25.5 91.5 25.5
c21.333 0 39.333 -3.33301 54 -10zM286.001 572.001h-93l99 206h148z" />
    <glyph glyph-name="Rcommaaccent" unicode="&#x156;" horiz-adv-x="708" 
d="M672 0h-165.001l-91 237c-7.33301 18.667 -18.5 31.667 -33.5 39s-33.833 11 -56.5 11h-101v-287h-154v712h317c82.667 0 145.334 -18 188.001 -54s64 -87.667 64 -155c0 -47.333 -12.5 -88 -37.5 -122s-60.833 -58.333 -107.5 -73c42 -8.66699 72.333 -37.667 91 -87z
M364.999 406c44.667 0 77.334 7.5 98.001 22.5s31 38.5 31 70.5s-10.333 55.5 -31 70.5s-53.334 22.5 -98.001 22.5h-142v-186h142zM430.999 -67v-64.001c0 -31.333 -4.5 -58.666 -13.5 -81.999s-24.5 -45 -46.5 -65l-55 38c19.333 18 31 37.667 35 59h-70v114h150z" />
    <glyph glyph-name="rcommaaccent" unicode="&#x157;" horiz-adv-x="410" 
d="M410 509l-0.999023 -137.999c-24.667 11.333 -49.334 17 -74.001 17c-40 0 -70.5 -10.833 -91.5 -32.5s-31.5 -51.834 -31.5 -90.501v-265h-151v362c0 54 -2.66699 102.333 -8 145h142l10 -87c12.667 32 32.5 56.5 59.5 73.5s57.5 25.5 91.5 25.5
c21.333 0 39.333 -3.33301 54 -10zM211.001 -66.999v-64.001c0 -31.333 -4.5 -58.666 -13.5 -81.999s-24.5 -45 -46.5 -65l-55 38c19.333 18 31 37.667 35 59h-70v114h150z" />
    <glyph glyph-name="Rcaron" unicode="&#x158;" horiz-adv-x="708" 
d="M672 0h-165.001l-91 237c-7.33301 18.667 -18.5 31.667 -33.5 39s-33.833 11 -56.5 11h-101v-287h-154v712h317c82.667 0 145.334 -18 188.001 -54s64 -87.667 64 -155c0 -47.333 -12.5 -88 -37.5 -122s-60.833 -58.333 -107.5 -73c42 -8.66699 72.333 -37.667 91 -87z
M364.999 406c44.667 0 77.334 7.5 98.001 22.5s31 38.5 31 70.5s-10.333 55.5 -31 70.5s-53.334 22.5 -98.001 22.5h-142v-186h142zM417.999 930h114l-133 -157h-87l-133 157h114l63 -87z" />
    <glyph glyph-name="rcaron" unicode="&#x159;" horiz-adv-x="410" 
d="M410 509l-0.999023 -137.999c-24.667 11.333 -49.334 17 -74.001 17c-40 0 -70.5 -10.833 -91.5 -32.5s-31.5 -51.834 -31.5 -90.501v-265h-151v362c0 54 -2.66699 102.333 -8 145h142l10 -87c12.667 32 32.5 56.5 59.5 73.5s57.5 25.5 91.5 25.5
c21.333 0 39.333 -3.33301 54 -10zM298.001 778.001h118l-131 -206h-91l-131 206h118l59 -118z" />
    <glyph glyph-name="Sacute" unicode="&#x15a;" horiz-adv-x="657" 
d="M164.5 12.5c-49.667 14.333 -90.833 34.502 -123.5 60.502l50 112c68.667 -48 145.334 -72 230.001 -72c45.333 0 80.166 7.16699 104.499 21.5s36.5 34.5 36.5 60.5c0 22.667 -11.167 40.5 -33.5 53.5s-61.5 25.5 -117.5 37.5c-62.667 12.667 -112.5 28.167 -149.5 46.5
s-64 40.666 -81 66.999s-25.5 59.166 -25.5 98.499c0 42.667 11.833 81 35.5 115s56.834 60.5 99.501 79.5s92 28.5 148 28.5c50.667 0 99.334 -7.33301 146.001 -22s84 -34.667 112 -60l-50 -112c-62.667 48 -131.667 72 -207 72c-40 0 -72 -8 -96 -24s-36 -37.667 -36 -65
c0 -16 4.5 -29.333 13.5 -40s24.167 -20.167 45.5 -28.5s51.666 -16.5 90.999 -24.5c91.333 -20 157.166 -46 197.499 -78s60.5 -75.667 60.5 -131c0 -66.667 -26 -119.5 -78 -158.5s-124.333 -58.5 -217 -58.5c-54 0 -105.833 7.16699 -155.5 21.5zM377.001 773.002h-93
l103 157h140z" />
    <glyph glyph-name="sacute" unicode="&#x15b;" horiz-adv-x="503" 
d="M28 54l39.999 104.999c26.667 -19.333 56.334 -34.166 89.001 -44.499s66 -15.5 100 -15.5c26 0 46 4 60 12s21 19.667 21 35c0 12.667 -5 22.667 -15 30s-27.667 13.666 -53 18.999l-83 19c-48.667 10.667 -84.5 27.667 -107.5 51s-34.5 54.333 -34.5 93
c0 31.333 9.16699 59.333 27.5 84s43.833 43.834 76.5 57.501s70.334 20.5 113.001 20.5c36 0 71.333 -5.5 106 -16.5s65.667 -26.5 93 -46.5l-42 -101c-26 18 -52.5 31.667 -79.5 41s-53.167 14 -78.5 14c-24.667 0 -44 -4.33301 -58 -13s-21 -20.667 -21 -36
c0 -11.333 4.16699 -20.5 12.5 -27.5s23.166 -12.833 44.499 -17.5l85 -19c52 -12 89.667 -30 113 -54s35 -56 35 -96c0 -48 -19.333 -86 -58 -114s-91.667 -42 -159 -42c-96 0 -171.667 20.667 -227 62zM306.999 571.999h-93l99 206h148z" />
    <glyph glyph-name="Scircumflex" unicode="&#x15c;" horiz-adv-x="657" 
d="M164.5 12.5c-49.667 14.333 -90.833 34.502 -123.5 60.502l50 112c68.667 -48 145.334 -72 230.001 -72c45.333 0 80.166 7.16699 104.499 21.5s36.5 34.5 36.5 60.5c0 22.667 -11.167 40.5 -33.5 53.5s-61.5 25.5 -117.5 37.5c-62.667 12.667 -112.5 28.167 -149.5 46.5
s-64 40.666 -81 66.999s-25.5 59.166 -25.5 98.499c0 42.667 11.833 81 35.5 115s56.834 60.5 99.501 79.5s92 28.5 148 28.5c50.667 0 99.334 -7.33301 146.001 -22s84 -34.667 112 -60l-50 -112c-62.667 48 -131.667 72 -207 72c-40 0 -72 -8 -96 -24s-36 -37.667 -36 -65
c0 -16 4.5 -29.333 13.5 -40s24.167 -20.167 45.5 -28.5s51.666 -16.5 90.999 -24.5c91.333 -20 157.166 -46 197.499 -78s60.5 -75.667 60.5 -131c0 -66.667 -26 -119.5 -78 -158.5s-124.333 -58.5 -217 -58.5c-54 0 -105.833 7.16699 -155.5 21.5zM268.001 773.002h-114
l133 157h87l133 -157h-114l-62 86z" />
    <glyph glyph-name="scircumflex" unicode="&#x15d;" horiz-adv-x="503" 
d="M28 54l39.999 104.999c26.667 -19.333 56.334 -34.166 89.001 -44.499s66 -15.5 100 -15.5c26 0 46 4 60 12s21 19.667 21 35c0 12.667 -5 22.667 -15 30s-27.667 13.666 -53 18.999l-83 19c-48.667 10.667 -84.5 27.667 -107.5 51s-34.5 54.333 -34.5 93
c0 31.333 9.16699 59.333 27.5 84s43.833 43.834 76.5 57.501s70.334 20.5 113.001 20.5c36 0 71.333 -5.5 106 -16.5s65.667 -26.5 93 -46.5l-42 -101c-26 18 -52.5 31.667 -79.5 41s-53.167 14 -78.5 14c-24.667 0 -44 -4.33301 -58 -13s-21 -20.667 -21 -36
c0 -11.333 4.16699 -20.5 12.5 -27.5s23.166 -12.833 44.499 -17.5l85 -19c52 -12 89.667 -30 113 -54s35 -56 35 -96c0 -48 -19.333 -86 -58 -114s-91.667 -42 -159 -42c-96 0 -171.667 20.667 -227 62zM201.999 571.999h-118l131 206h91l131 -206h-118l-58 117z" />
    <glyph glyph-name="Scedilla" unicode="&#x15e;" horiz-adv-x="657" 
d="M546.5 56.5c-45.667 -38.333 -109.165 -59.8311 -190.498 -64.498l-5 -33c3.33301 0.666992 7.66602 1 12.999 1c25.333 0 45.833 -6.33301 61.5 -19s23.5 -29.667 23.5 -51c0 -26.667 -12 -48.167 -36 -64.5s-57.667 -24.5 -101 -24.5c-14.667 0 -30.5 1.5 -47.5 4.5
s-32.5 7.5 -46.5 13.5l12 59c30.667 -9.33301 57 -14 79 -14c30.667 0 46 8.66699 46 26c0 6 -2.83301 10.833 -8.5 14.5s-13.834 5.5 -24.501 5.5c-8.66699 0 -20.667 -2.33301 -36 -7l-20 21l9 69c-46 3.33301 -89.5 12 -130.5 26s-75.5 32 -103.5 54l50 112
c68.667 -48 145.334 -72 230.001 -72c45.333 0 80.166 7.16699 104.499 21.5s36.5 34.5 36.5 60.5c0 22.667 -11.167 40.5 -33.5 53.5s-61.5 25.5 -117.5 37.5c-62.667 12.667 -112.5 28.167 -149.5 46.5s-64 40.666 -81 66.999s-25.5 59.166 -25.5 98.499
c0 42.667 11.833 81 35.5 115s56.834 60.5 99.501 79.5s92 28.5 148 28.5c50.667 0 99.334 -7.33301 146.001 -22s84 -34.667 112 -60l-50 -112c-62.667 48 -131.667 72 -207 72c-40 0 -72 -8 -96 -24s-36 -37.667 -36 -65c0 -16 4.5 -29.333 13.5 -40
s24.167 -20.167 45.5 -28.5s51.666 -16.5 90.999 -24.5c91.333 -20 157.166 -46 197.499 -78s60.5 -75.667 60.5 -131c0 -62.667 -22.833 -113.167 -68.5 -151.5z" />
    <glyph glyph-name="scedilla" unicode="&#x15f;" horiz-adv-x="503" 
d="M421 39.5c-34 -27.667 -80.666 -43.167 -139.999 -46.5l-5 -34c3.33301 0.666992 7.66602 1 12.999 1c25.333 0 45.833 -6.33301 61.5 -19s23.5 -29.667 23.5 -51c0 -26.667 -12 -48.167 -36 -64.5s-57.667 -24.5 -101 -24.5c-14 0 -29.667 1.5 -47 4.5s-33 7.5 -47 13.5
l12 59c30.667 -9.33301 57 -14 79 -14c30.667 0 46 8.66699 46 26c0 6 -2.83301 10.833 -8.5 14.5s-13.834 5.5 -24.501 5.5c-8.66699 0 -20.667 -2.33301 -36 -7l-20 21l9 71c-70 6 -127.333 25.667 -172 59l40 105c26.667 -19.333 56.334 -34.166 89.001 -44.499
s66 -15.5 100 -15.5c26 0 46 4 60 12s21 19.667 21 35c0 12.667 -5 22.667 -15 30s-27.667 13.666 -53 18.999l-83 19c-48.667 10.667 -84.5 27.667 -107.5 51s-34.5 54.333 -34.5 93c0 31.333 9.16699 59.333 27.5 84s43.833 43.834 76.5 57.501s70.334 20.5 113.001 20.5
c36 0 71.333 -5.5 106 -16.5s65.667 -26.5 93 -46.5l-42 -101c-26 18 -52.5 31.667 -79.5 41s-53.167 14 -78.5 14c-24.667 0 -44 -4.33301 -58 -13s-21 -20.667 -21 -36c0 -11.333 4.16699 -20.5 12.5 -27.5s23.166 -12.833 44.499 -17.5l85 -19c52 -12 89.667 -30 113 -54
s35 -56 35 -96c0 -44.667 -17 -80.834 -51 -108.501z" />
    <glyph glyph-name="Scaron" unicode="&#x160;" horiz-adv-x="657" 
d="M164.5 12.5c-49.667 14.333 -90.833 34.502 -123.5 60.502l50 112c68.667 -48 145.334 -72 230.001 -72c45.333 0 80.166 7.16699 104.499 21.5s36.5 34.5 36.5 60.5c0 22.667 -11.167 40.5 -33.5 53.5s-61.5 25.5 -117.5 37.5c-62.667 12.667 -112.5 28.167 -149.5 46.5
s-64 40.666 -81 66.999s-25.5 59.166 -25.5 98.499c0 42.667 11.833 81 35.5 115s56.834 60.5 99.501 79.5s92 28.5 148 28.5c50.667 0 99.334 -7.33301 146.001 -22s84 -34.667 112 -60l-50 -112c-62.667 48 -131.667 72 -207 72c-40 0 -72 -8 -96 -24s-36 -37.667 -36 -65
c0 -16 4.5 -29.333 13.5 -40s24.167 -20.167 45.5 -28.5s51.666 -16.5 90.999 -24.5c91.333 -20 157.166 -46 197.499 -78s60.5 -75.667 60.5 -131c0 -66.667 -26 -119.5 -78 -158.5s-124.333 -58.5 -217 -58.5c-54 0 -105.833 7.16699 -155.5 21.5zM393.001 930.002h114
l-133 -157h-87l-133 157h114l63 -87z" />
    <glyph glyph-name="scaron" unicode="&#x161;" horiz-adv-x="503" 
d="M28 54l39.999 104.999c26.667 -19.333 56.334 -34.166 89.001 -44.499s66 -15.5 100 -15.5c26 0 46 4 60 12s21 19.667 21 35c0 12.667 -5 22.667 -15 30s-27.667 13.666 -53 18.999l-83 19c-48.667 10.667 -84.5 27.667 -107.5 51s-34.5 54.333 -34.5 93
c0 31.333 9.16699 59.333 27.5 84s43.833 43.834 76.5 57.501s70.334 20.5 113.001 20.5c36 0 71.333 -5.5 106 -16.5s65.667 -26.5 93 -46.5l-42 -101c-26 18 -52.5 31.667 -79.5 41s-53.167 14 -78.5 14c-24.667 0 -44 -4.33301 -58 -13s-21 -20.667 -21 -36
c0 -11.333 4.16699 -20.5 12.5 -27.5s23.166 -12.833 44.499 -17.5l85 -19c52 -12 89.667 -30 113 -54s35 -56 35 -96c0 -48 -19.333 -86 -58 -114s-91.667 -42 -159 -42c-96 0 -171.667 20.667 -227 62zM318.999 777.999h118l-131 -206h-91l-131 206h118l59 -118z" />
    <glyph glyph-name="uni0162" unicode="&#x162;" horiz-adv-x="628" 
d="M344 0l-5.99805 -41c3.33301 0.666992 7.66602 1 12.999 1c25.333 0 45.833 -6.33301 61.5 -19s23.5 -29.667 23.5 -51c0 -26.667 -12 -48.167 -36 -64.5s-57.667 -24.5 -101 -24.5c-14.667 0 -30.5 1.5 -47.5 4.5s-32.5 7.5 -46.5 13.5l12 59
c30.667 -9.33301 57 -14 79 -14c30.667 0 46 8.66699 46 26c0 6 -2.83301 10.833 -8.5 14.5s-13.834 5.5 -24.501 5.5c-8.66699 0 -20.667 -2.33301 -36 -7l-20 21l10 76h-28v585h-223v127h604v-127h-223v-585h-49z" />
    <glyph glyph-name="uni0163" unicode="&#x163;" horiz-adv-x="396" 
d="M251 394l0.000976562 -197c0 -28 7.33301 -48.5 22 -61.5s33.667 -19.5 57 -19.5c14.667 0 31.334 2.33301 50.001 7v-117c-24 -9.33301 -53 -14 -87 -14h-14l-5 -33c3.33301 0.666992 7.66602 1 12.999 1c25.333 0 45.833 -6.33301 61.5 -19s23.5 -29.667 23.5 -51
c0 -26.667 -12 -48.167 -36 -64.5s-57.667 -24.5 -101 -24.5c-14.667 0 -30.5 1.5 -47.5 4.5s-32.5 7.5 -46.5 13.5l12 59c30.667 -9.33301 57 -14 79 -14c30.667 0 46 8.66699 46 26c0 6 -2.83301 10.833 -8.5 14.5s-13.834 5.5 -24.501 5.5
c-8.66699 0 -20.667 -2.33301 -36 -7l-20 21l11 86c-32.667 14.667 -57.5 37.5 -74.5 68.5s-25.5 69.5 -25.5 115.5v200h-96v113h96v119l151 49v-168h129v-113h-129z" />
    <glyph glyph-name="Tcaron" unicode="&#x164;" horiz-adv-x="628" 
d="M235 0v585h-223v127h604v-127h-223v-585h-158zM376 930h114l-133 -157h-87l-133 157h114l63 -87z" />
    <glyph glyph-name="tcaron" unicode="&#x165;" horiz-adv-x="396" 
d="M406 714l-31 -177h-83v177h114zM251 507h128.999v-113h-129v-197c0 -28 7.33301 -48.5 22 -61.5s33.667 -19.5 57 -19.5c14.667 0 31.334 2.33301 50.001 7v-117c-24 -9.33301 -53 -14 -87 -14c-62.667 0 -110.5 17.667 -143.5 53s-49.5 85 -49.5 149v200h-96v113h96v119
l151 49v-168z" />
    <glyph glyph-name="Tbar" unicode="&#x166;" horiz-adv-x="628" 
d="M616 585h-223v-166h136v-119h-136v-300h-158v300h-136v119h136v166h-223v127h604v-127z" />
    <glyph glyph-name="tbar" unicode="&#x167;" horiz-adv-x="407" 
d="M257 394l0.000976562 -54h108v-106h-108v-37c0 -28 7.16699 -48.5 21.5 -61.5s33.166 -19.5 56.499 -19.5c14.667 0 31.667 2.33301 51 7v-117c-24 -9.33301 -53.333 -14 -88 -14c-62 0 -109.667 17.667 -143 53s-50 85 -50 149v40h-75v106h75v54h-96v113h96v119l152 49
v-168h129v-113h-129z" />
    <glyph glyph-name="Utilde" unicode="&#x168;" horiz-adv-x="746" 
d="M145 68c-52 51.333 -78 126.668 -78 226.001v418h153v-425c0 -56.667 13.167 -99.834 39.5 -129.501s64.166 -44.5 113.499 -44.5s87 14.833 113 44.5s39 72.834 39 129.501v425h154v-418c0 -98.667 -26.167 -173.834 -78.5 -225.501s-128.166 -77.5 -227.499 -77.5
c-100 0 -176 25.667 -228 77zM227.5 890.002c20.333 24.667 46.5 37 78.5 37c12.667 0 25.167 -2.66699 37.5 -8s25.5 -12.666 39.5 -21.999c14.667 -8 25.834 -13.833 33.501 -17.5s15.5 -5.5 23.5 -5.5c12.667 0 22.834 4.5 30.501 13.5s12.167 21.167 13.5 36.5h64
c0 -48.667 -10.167 -85.334 -30.5 -110.001s-46.5 -37 -78.5 -37c-12.667 0 -25.167 2.66699 -37.5 8s-25.5 12.666 -39.5 21.999c-14.667 8 -25.834 13.833 -33.501 17.5s-15.5 5.5 -23.5 5.5c-12.667 0 -22.834 -4.5 -30.501 -13.5s-12.167 -21.167 -13.5 -36.5h-64
c0 48.667 10.167 85.334 30.5 110.001z" />
    <glyph glyph-name="utilde" unicode="&#x169;" horiz-adv-x="606" 
d="M545 507v-506.999h-147v74c-16 -26.667 -37 -47 -63 -61s-55.333 -21 -88 -21c-63.333 0 -110.666 17.667 -141.999 53s-47 88.666 -47 159.999v302h151v-305c0 -61.333 26.333 -92 79 -92c31.333 0 56.666 10.667 75.999 32s29 49.333 29 84v281h152zM157.5 713.501
c20.333 24.333 46.5 36.5 78.5 36.5c12.667 0 24.834 -2.5 36.501 -7.5s25.167 -12.167 40.5 -21.5c14.667 -8 25.834 -13.833 33.501 -17.5s15.5 -5.5 23.5 -5.5c12.667 0 22.834 4.33301 30.501 13s12.167 20.667 13.5 36h64c0 -48 -10.167 -84.333 -30.5 -109
s-46.5 -37 -78.5 -37c-12.667 0 -24.834 2.5 -36.501 7.5s-25.167 12.167 -40.5 21.5c-14.667 8 -25.834 13.833 -33.501 17.5s-15.5 5.5 -23.5 5.5c-12.667 0 -22.834 -4.33301 -30.501 -13s-12.167 -20.667 -13.5 -36h-64c0 48.667 10.167 85.167 30.5 109.5z" />
    <glyph glyph-name="Umacron" unicode="&#x16a;" horiz-adv-x="746" 
d="M145 68c-52 51.333 -78 126.668 -78 226.001v418h153v-425c0 -56.667 13.167 -99.834 39.5 -129.501s64.166 -44.5 113.499 -44.5s87 14.833 113 44.5s39 72.834 39 129.501v425h154v-418c0 -98.667 -26.167 -173.834 -78.5 -225.501s-128.166 -77.5 -227.499 -77.5
c-100 0 -176 25.667 -228 77zM215 804.002v94h315v-94h-315z" />
    <glyph glyph-name="umacron" unicode="&#x16b;" horiz-adv-x="606" 
d="M545 507v-506.999h-147v74c-16 -26.667 -37 -47 -63 -61s-55.333 -21 -88 -21c-63.333 0 -110.666 17.667 -141.999 53s-47 88.666 -47 159.999v302h151v-305c0 -61.333 26.333 -92 79 -92c31.333 0 56.666 10.667 75.999 32s29 49.333 29 84v281h152zM145 626.001v94
h315v-94h-315z" />
    <glyph glyph-name="Ubreve" unicode="&#x16c;" horiz-adv-x="746" 
d="M145 68c-52 51.333 -78 126.668 -78 226.001v418h153v-425c0 -56.667 13.167 -99.834 39.5 -129.501s64.166 -44.5 113.499 -44.5s87 14.833 113 44.5s39 72.834 39 129.501v425h154v-418c0 -98.667 -26.167 -173.834 -78.5 -225.501s-128.166 -77.5 -227.499 -77.5
c-100 0 -176 25.667 -228 77zM260 810.002c-31.333 18.667 -53.668 46 -67.001 82l70 29c21.333 -32.667 58 -49 110 -49c51.333 0 87.666 16.333 108.999 49l70 -29c-13.333 -36 -35.666 -63.333 -66.999 -82s-68.666 -28 -111.999 -28c-44 0 -81.667 9.33301 -113 28z" />
    <glyph glyph-name="ubreve" unicode="&#x16d;" horiz-adv-x="606" 
d="M545 507v-506.999h-147v74c-16 -26.667 -37 -47 -63 -61s-55.333 -21 -88 -21c-63.333 0 -110.666 17.667 -141.999 53s-47 88.666 -47 159.999v302h151v-305c0 -61.333 26.333 -92 79 -92c31.333 0 56.666 10.667 75.999 32s29 49.333 29 84v281h152zM185 631.001
c-34.667 24.667 -57.667 61 -69 109l69 30c29.333 -54 68.666 -81 117.999 -81c48.667 0 87.667 27 117 81l69 -30c-11.333 -47.333 -34.166 -83.5 -68.499 -108.5s-73.5 -37.5 -117.5 -37.5s-83.333 12.333 -118 37z" />
    <glyph glyph-name="Uring" unicode="&#x16e;" horiz-adv-x="746" 
d="M145 68c-52 51.333 -78 126.668 -78 226.001v418h153v-425c0 -56.667 13.167 -99.834 39.5 -129.501s64.166 -44.5 113.499 -44.5s87 14.833 113 44.5s39 72.834 39 129.501v425h154v-418c0 -98.667 -26.167 -173.834 -78.5 -225.501s-128.166 -77.5 -227.499 -77.5
c-100 0 -176 25.667 -228 77zM294 799.002c-21.333 20.667 -32 46.334 -32 77.001s10.667 56.5 32 77.5s47.666 31.5 78.999 31.5c30.667 0 56.667 -10.5 78 -31.5s32 -46.833 32 -77.5s-10.667 -56.334 -32 -77.001s-47.333 -31 -78 -31
c-31.333 0 -57.666 10.333 -78.999 31zM404 843.002c8 8.66699 12 19.667 12 33s-4 24.333 -12 33s-18.333 13 -31 13s-23.167 -4.33301 -31.5 -13s-12.5 -19.667 -12.5 -33s4.16699 -24.333 12.5 -33s18.833 -13 31.5 -13s23 4.33301 31 13z" />
    <glyph glyph-name="uring" unicode="&#x16f;" horiz-adv-x="606" 
d="M545 507v-506.999h-147v74c-16 -26.667 -37 -47 -63 -61s-55.333 -21 -88 -21c-63.333 0 -110.666 17.667 -141.999 53s-47 88.666 -47 159.999v302h151v-305c0 -61.333 26.333 -92 79 -92c31.333 0 56.666 10.667 75.999 32s29 49.333 29 84v281h152zM224 598.501
c-21.333 21 -32.002 46.833 -32.002 77.5c0 30 10.833 55.5 32.5 76.5s47.834 31.5 78.501 31.5s56.667 -10.5 78 -31.5s32 -46.5 32 -76.5c0 -30.667 -10.667 -56.5 -32 -77.5s-47.333 -31.5 -78 -31.5c-31.333 0 -57.666 10.5 -78.999 31.5zM333.998 642.501
c8 9 12 20.167 12 33.5c0 12.667 -4 23.334 -12 32.001s-18.333 13 -31 13s-23.167 -4.33301 -31.5 -13s-12.5 -19.334 -12.5 -32.001c0 -13.333 4.16699 -24.5 12.5 -33.5s18.833 -13.5 31.5 -13.5s23 4.5 31 13.5z" />
    <glyph glyph-name="Uhungarumlaut" unicode="&#x170;" horiz-adv-x="746" 
d="M145 68c-52 51.333 -78 126.668 -78 226.001v418h153v-425c0 -56.667 13.167 -99.834 39.5 -129.501s64.166 -44.5 113.499 -44.5s87 14.833 113 44.5s39 72.834 39 129.501v425h154v-418c0 -98.667 -26.167 -173.834 -78.5 -225.501s-128.166 -77.5 -227.499 -77.5
c-100 0 -176 25.667 -228 77zM265 773.002l74 157h101l-100 -157h-75zM405 773.002l74 157h102l-101 -157h-75z" />
    <glyph glyph-name="uhungarumlaut" unicode="&#x171;" horiz-adv-x="606" 
d="M545 507v-506.999h-147v74c-16 -26.667 -37 -47 -63 -61s-55.333 -21 -88 -21c-63.333 0 -110.666 17.667 -141.999 53s-47 88.666 -47 159.999v302h151v-305c0 -61.333 26.333 -92 79 -92c31.333 0 56.666 10.667 75.999 32s29 49.333 29 84v281h152zM265 572.001h-65
l35 206h109zM405 572.001h-65l34 206h109z" />
    <glyph glyph-name="Uogonek" unicode="&#x172;" horiz-adv-x="746" 
d="M679 712v-418.003c0 -78 -16.167 -141.333 -48.5 -190s-80.166 -81.667 -143.499 -99c-20 -5.33301 -35.5 -14.166 -46.5 -26.499s-16.5 -27.166 -16.5 -44.499s5.33301 -30.666 16 -39.999s25.667 -14 45 -14c18 0 36 4.33301 54 13l18 -71
c-30 -14 -63.667 -21 -101 -21s-68.166 10.333 -92.499 31s-36.5 47.334 -36.5 80.001c0 31.333 11.333 57.666 34 78.999c-96.667 2.66699 -169.834 29.667 -219.501 81s-74.5 125.333 -74.5 222v418h153v-425c0 -56.667 13.167 -99.834 39.5 -129.501
s64.166 -44.5 113.499 -44.5s87 14.833 113 44.5s39 72.834 39 129.501v425h154z" />
    <glyph glyph-name="uogonek" unicode="&#x173;" horiz-adv-x="606" 
d="M585 -182c-32.667 -14.667 -66.666 -21.999 -101.999 -21.999c-38.667 0 -70.334 10.833 -95.001 32.5s-37 49.5 -37 83.5c0 38 15.667 70 47 96v66c-16 -26.667 -37 -47 -63 -61s-55.333 -21 -88 -21c-63.333 0 -110.666 17.667 -141.999 53s-47 88.666 -47 159.999v302
h151v-305c0 -61.333 26.333 -92 79 -92c31.333 0 56.666 10.667 75.999 32s29 49.333 29 84v281h152v-507h-10c-25.333 -0 -46 -6.16699 -62 -18.5s-24 -28.833 -24 -49.5c0 -18 5.16699 -31.833 15.5 -41.5s25.833 -14.5 46.5 -14.5c19.333 0 38 4.66699 56 14z" />
    <glyph glyph-name="Wcircumflex" unicode="&#x174;" horiz-adv-x="1126" 
d="M958 712h149l-253 -712h-125l-166 471l-167 -471h-125l-253 712h159l164 -492l172 492h109l168 -499zM500 773h-114l133 157h87l133 -157h-114l-62 86z" />
    <glyph glyph-name="wcircumflex" unicode="&#x175;" horiz-adv-x="891" 
d="M744 507h146l-205 -507h-127l-115 294l-110 -294h-128l-205 507h154l122 -327l121 327h103l122 -330zM386 572h-118l131 206h91l131 -206h-118l-58 117z" />
    <glyph glyph-name="Ycircumflex" unicode="&#x176;" horiz-adv-x="642" 
d="M694 712l-295 -436v-276h-156v277l-294 435h177l194 -304l196 304h178zM257 773h-114l133 157h87l133 -157h-114l-62 86z" />
    <glyph glyph-name="ycircumflex" unicode="&#x177;" horiz-adv-x="550" 
d="M561 507l-234 -533.999c-28.667 -64.667 -64.834 -112.167 -108.501 -142.5s-97.167 -49.833 -160.5 -58.5l-35 116c46.667 10 81.834 22.667 105.501 38s42.167 37.666 55.5 66.999l15 33l-209 481h158l130 -329l134 329h149zM216 572.001h-118l131 206h91l131 -206
h-118l-58 117z" />
    <glyph glyph-name="Ydieresis" unicode="&#x178;" horiz-adv-x="642" 
d="M694 712l-295 -436v-276h-156v277l-294 435h177l194 -304l196 304h178zM154 918h139v-132h-139v132zM346 918h139v-132h-139v132z" />
    <glyph glyph-name="Zacute" unicode="&#x179;" horiz-adv-x="615" 
d="M223 123h357v-123h-529v114l343 475h-343v123h518v-113zM355 773h-93l103 157h140z" />
    <glyph glyph-name="zacute" unicode="&#x17a;" horiz-adv-x="530" 
d="M225 113h270v-113h-447v106l256 288h-252v113h433v-102zM319 572h-93l99 206h148z" />
    <glyph glyph-name="Zdotaccent" unicode="&#x17b;" horiz-adv-x="615" 
d="M223 123h357v-123h-529v114l343 475h-343v123h518v-113zM228 923h161v-142h-161v142z" />
    <glyph glyph-name="zdotaccent" unicode="&#x17c;" horiz-adv-x="530" 
d="M225 113h270v-113h-447v106l256 288h-252v113h433v-102zM192 745h161v-142h-161v142z" />
    <glyph glyph-name="Zcaron" unicode="&#x17d;" horiz-adv-x="615" 
d="M223 123h357v-123h-529v114l343 475h-343v123h518v-113zM371 930h114l-133 -157h-87l-133 157h114l63 -87z" />
    <glyph glyph-name="zcaron" unicode="&#x17e;" horiz-adv-x="530" 
d="M225 113h270v-113h-447v106l256 288h-252v113h433v-102zM331 778h118l-131 -206h-91l-131 206h118l59 -118z" />
    <glyph glyph-name="uni018F" unicode="&#x18f;" horiz-adv-x="775" 
d="M554.5 676.5c54.333 -29.667 96.166 -71.834 125.499 -126.501s44 -119 44 -193c0 -71.333 -13.667 -134.666 -41 -189.999s-65.666 -98.5 -114.999 -129.5s-106.333 -46.5 -171 -46.5c-72 0 -134 14.333 -186 43s-91.833 70.667 -119.5 126s-41.5 122 -41.5 200v60h515
c-8.66699 58 -30.667 102 -66 132s-82.333 45 -141 45c-78 0 -147.333 -23.333 -208 -70l-50 112c31.333 25.333 70.833 45.333 118.5 60s96.167 22 145.5 22c72.667 0 136.167 -14.833 190.5 -44.5zM512.5 160c29 31.333 46.833 78 53.5 140h-357
c5.33301 -61.333 23.833 -107.833 55.5 -139.5s74.5 -47.5 128.5 -47.5c50.667 0 90.5 15.667 119.5 47z" />
    <glyph glyph-name="florin" unicode="&#x192;" horiz-adv-x="600" 
d="M455.5 577c-13 -13.333 -21.833 -32.667 -26.5 -58l-4 -19h109v-88h-128l-86 -405c-14 -68 -41.333 -117.333 -82 -148s-87.334 -46 -140.001 -46h-74v119h71c20 0 36.5 6.66699 49.5 20s21.833 33 26.5 59l85 401h-109v88h128l5 23c14 68 41.333 117.333 82 148
s87.334 46 140.001 46h74v-120h-72c-19.333 0 -35.5 -6.66699 -48.5 -20z" />
    <glyph glyph-name="Ohorn" unicode="&#x1a0;" horiz-adv-x="795" 
d="M712.5 695.5c-21 -27.667 -48.834 -45.502 -83.501 -53.502c38 -31.333 66.667 -71.166 86 -119.499s29 -103.5 29 -165.5c0 -74 -14 -138.667 -42 -194s-68 -97.833 -120 -127.5s-113.333 -44.5 -184 -44.5s-132.167 14.833 -184.5 44.5s-92.666 72.167 -120.999 127.5
s-42.5 120 -42.5 194s14.167 138.333 42.5 193s68.833 96.834 121.5 126.501s114.667 44.5 186 44.5c21.333 0 43 -1.66699 65 -5c26.667 -2.66699 46.667 -4 60 -4c32.667 0 55.667 7.66699 69 23s20 42 20 80v19h130v-38c0 -39.333 -10.5 -72.833 -31.5 -100.5z
M538.499 175.998c33.667 42 50.5 102.333 50.5 181s-16.833 138.667 -50.5 180s-80.5 62 -140.5 62s-106.833 -20.667 -140.5 -62s-50.5 -101.333 -50.5 -180c0 -79.333 16.833 -139.833 50.5 -181.5s80.5 -62.5 140.5 -62.5s106.833 21 140.5 63z" />
    <glyph glyph-name="ohorn" unicode="&#x1a1;" horiz-adv-x="604" 
d="M566 504c-17.333 -26.667 -40.999 -45.668 -70.999 -57.001c24 -22.667 42.167 -50.5 54.5 -83.5s18.5 -69.167 18.5 -108.5c0 -53.333 -10.833 -99.833 -32.5 -139.5s-52.5 -70.167 -92.5 -91.5s-86.667 -32 -140 -32c-54 0 -101.167 10.667 -141.5 32
s-71.333 51.833 -93 91.5s-32.5 86.167 -32.5 139.5c0 54 10.833 100.833 32.5 140.5s52.5 70.334 92.5 92.001s86.333 32.5 139 32.5c16 0 36 -2 60 -6c11.333 -2 19.666 -3 24.999 -3c24 0 43 7.5 57 22.5s21 42.5 21 82.5v20h129v-38c0 -36 -8.66699 -67.333 -26 -94z
M388.501 143.999c19.667 24.667 29.5 62 29.5 112c0 49.333 -9.83301 86.5 -29.5 111.5s-48.167 37.5 -85.5 37.5c-38 0 -67 -12.5 -87 -37.5s-30 -62.167 -30 -111.5c0 -99.333 39 -149 117 -149c37.333 0 65.833 12.333 85.5 37z" />
    <glyph glyph-name="Uhorn" unicode="&#x1af;" horiz-adv-x="746" 
d="M793 834l0.000976562 -37.998c0 -38 -10.333 -70.667 -31 -98s-48.334 -45.333 -83.001 -54v-350c0 -98.667 -26.167 -173.834 -78.5 -225.501s-128.166 -77.5 -227.499 -77.5c-100 0 -176 25.667 -228 77s-78 126.666 -78 225.999v418h153v-425
c0 -56.667 13.167 -99.834 39.5 -129.501s64.166 -44.5 113.499 -44.5s87 14.833 113 44.5s39 72.834 39 129.501v425h46c34 0 57.833 7.66699 71.5 23s20.5 42 20.5 80v19h130z" />
    <glyph glyph-name="uhorn" unicode="&#x1b0;" horiz-adv-x="631" 
d="M661 636v-37.999c0 -40 -10.5 -74 -31.5 -102s-49.167 -46.333 -84.5 -55v-441h-147v74c-16 -26.667 -37 -47 -63 -61s-55.333 -21 -88 -21c-63.333 0 -110.666 17.667 -141.999 53s-47 88.666 -47 159.999v302h151v-305c0 -61.333 26.333 -92 79 -92
c31.333 0 56.666 10.667 75.999 32s29 49.333 29 84v281h43c34.667 0 59.167 8.16699 73.5 24.5s21.5 44.5 21.5 84.5v20h130z" />
    <glyph glyph-name="uni01C4" unicode="&#x1c4;" horiz-adv-x="1371" 
d="M71 712l275 -0.000976562c78 0 145 -14 201 -42s98.833 -68.667 128.5 -122s44.5 -117 44.5 -191c0 -74.667 -14.667 -138.667 -44 -192s-72 -94.166 -128 -122.499s-123.333 -42.5 -202 -42.5h-275v712zM336 125.999c152 0 228 77 228 231c0 152.667 -76 229 -228 229
h-109v-460h109zM979 122.999h357v-123h-529v114l343 475h-343v123h518v-113zM1127 929.999h114l-133 -157h-87l-133 157h114l63 -87z" />
    <glyph glyph-name="uni01C5" unicode="&#x1c5;" horiz-adv-x="1301" 
d="M71 712l275 -0.000976562c78 0 145 -14 201 -42s98.833 -68.667 128.5 -122s44.5 -117 44.5 -191c0 -74.667 -14.667 -138.667 -44 -192s-72 -94.166 -128 -122.499s-123.333 -42.5 -202 -42.5h-275v712zM336 125.999c152 0 228 77 228 231c0 152.667 -76 229 -228 229
h-109v-460h109zM996 112.999h270v-113h-447v106l256 288h-252v113h433v-102zM1102 777.999h118l-131 -206h-91l-131 206h118l59 -118z" />
    <glyph glyph-name="uni01C6" unicode="&#x1c6;" horiz-adv-x="1160" 
d="M569 736v-736.001h-149v75c-15.333 -26 -37 -46.333 -65 -61s-59.667 -22 -95 -22c-43.333 0 -82 11.167 -116 33.5s-60.5 53.666 -79.5 93.999s-28.5 86.5 -28.5 138.5s9.5 97.833 28.5 137.5s45.333 70.334 79 92.001s72.5 32.5 116.5 32.5c34 0 65 -7.16699 93 -21.5
s49.667 -34.166 65 -59.499v297h151zM390 145.499c20 25.667 30 62.5 30 110.5c0 47.333 -10.167 83.833 -30.5 109.5s-48.833 38.5 -85.5 38.5c-37.333 0 -66.333 -12.667 -87 -38s-31 -61.333 -31 -108c0 -48 10.333 -85.167 31 -111.5s49.667 -39.5 87 -39.5
s66 12.833 86 38.5zM855 112.999h270v-113h-447v106l256 288h-252v113h433v-102zM961 777.999h118l-131 -206h-91l-131 206h118l59 -118z" />
    <glyph glyph-name="uni01C7" unicode="&#x1c7;" horiz-adv-x="900" 
d="M71 0v712h156v-585h288v-127h-444zM519 -53c29.333 -4 53.332 -6 71.999 -6c32 0 53.5 7 64.5 21s16.5 40 16.5 78v672h157v-670c0 -79.333 -15.667 -137.5 -47 -174.5s-84.666 -55.5 -159.999 -55.5c-30.667 0 -65 3 -103 9v126z" />
    <glyph glyph-name="uni01C8" unicode="&#x1c8;" horiz-adv-x="843" 
d="M71 0v712h156v-585h318v-127h-474zM553 -100c22.667 0 41.1689 6.66699 55.502 20s21.5 34 21.5 62v525h151v-529c0 -64 -16.333 -113.667 -49 -149s-80 -53 -142 -53c-34.667 0 -63.334 4.33301 -86.001 13v118c19.333 -4.66699 35.666 -7 48.999 -7zM624.002 745h161
v-142h-161v142z" />
    <glyph glyph-name="uni01C9" unicode="&#x1c9;" horiz-adv-x="548" 
d="M61 0v736h151v-736h-151zM258 -100c22.667 0 41.1689 6.66699 55.502 20s21.5 34 21.5 62v525h151v-529c0 -64 -16.333 -113.667 -49 -149s-80 -53 -142 -53c-34.667 0 -63.334 4.33301 -86.001 13v118c19.333 -4.66699 35.666 -7 48.999 -7zM329.002 745h161v-142h-161
v142z" />
    <glyph glyph-name="uni01CA" unicode="&#x1ca;" horiz-adv-x="1141" 
d="M541 712h147v-712h-116l-355 454v-454h-146v712h115l355 -453v453zM760 -53c28 -4 51.666 -5.99902 70.999 -5.99902c32 0 53.667 7.16699 65 21.5s17 40.166 17 77.499v672h156v-670c0 -79.333 -15.667 -137.5 -47 -174.5s-84.666 -55.5 -159.999 -55.5
c-30 0 -64 3 -102 9v126z" />
    <glyph glyph-name="uni01CB" unicode="&#x1cb;" horiz-adv-x="1034" 
d="M541 712h147v-712h-116l-355 454v-454h-146v712h115l355 -453v453zM744 -100c22.667 0 41.1689 6.66699 55.502 20s21.5 34 21.5 62v525h151v-529c0 -64 -16.333 -113.667 -49 -149s-80 -53 -142 -53c-34.667 0 -63.334 4.33301 -86.001 13v118
c19.333 -4.66699 35.666 -7 48.999 -7zM815.002 745h161v-142h-161v142z" />
    <glyph glyph-name="uni01CC" unicode="&#x1cc;" horiz-adv-x="887" 
d="M554 307v-306.999h-151v300c0 35.333 -6.5 61.166 -19.5 77.499s-33.5 24.5 -61.5 24.5c-33.333 0 -60 -10.667 -80 -32s-30 -50 -30 -86v-284h-151v362c0 54 -2.66699 102.333 -8 145h142l10 -80c18 30 41.5 53 70.5 69s61.833 24 98.5 24c120 0 180 -71 180 -213z
M597 -99.999c22.667 0 41.1689 6.66699 55.502 20s21.5 34 21.5 62v525h151v-529c0 -64 -16.333 -113.667 -49 -149s-80 -53 -142 -53c-34.667 0 -63.334 4.33301 -86.001 13v118c19.333 -4.66699 35.666 -7 48.999 -7zM668.002 745.001h161v-142h-161v142z" />
    <glyph glyph-name="uni01CE" unicode="&#x1ce;" horiz-adv-x="630" 
d="M569 507v-507h-149v75c-15.333 -26 -37 -46.333 -65 -61s-59.667 -22 -95 -22c-44 0 -82.833 10.667 -116.5 32s-60 51.833 -79 91.5s-28.5 85.5 -28.5 137.5s9.5 98.333 28.5 139s45.5 72.167 79.5 94.5s72.667 33.5 116 33.5c35.333 0 67 -7.66699 95 -23
s49.667 -36 65 -62v72h149zM390 145c20 25.333 30 62 30 110s-10 84.833 -30 110.5s-48.667 38.5 -86 38.5s-66.333 -13.333 -87 -40s-31 -63.667 -31 -111s10.167 -83.5 30.5 -108.5s49.5 -37.5 87.5 -37.5c37.333 0 66 12.667 86 38zM373 778h118l-131 -206h-91l-131 206
h118l59 -118z" />
    <glyph glyph-name="Gcaron" unicode="&#x1e6;" horiz-adv-x="745" 
d="M682 393v-349.001c-34.667 -16.667 -75.167 -29.667 -121.5 -39s-93.833 -14 -142.5 -14c-75.333 0 -140.666 14.667 -195.999 44s-97.833 71.333 -127.5 126s-44.5 120 -44.5 196c0 74 14.833 138.333 44.5 193s71.667 96.834 126 126.501s117.833 44.5 190.5 44.5
c51.333 0 99.166 -7 143.499 -21s80.833 -33.667 109.5 -59l-50 -112c-33.333 24 -65.666 41.333 -96.999 52s-65.333 16 -102 16c-137.333 0 -206 -80 -206 -240c0 -163.333 71.667 -245 215 -245c39.333 0 78.666 5 117.999 15v157h-140v109h280zM473 929.999h114
l-133 -157h-87l-133 157h114l63 -87z" />
    <glyph glyph-name="gcaron" unicode="&#x1e7;" horiz-adv-x="634" 
d="M574 507l0.00195312 -483.999c0 -80.667 -23.333 -142 -70 -184s-114.667 -63 -204 -63c-80.667 0 -150.667 15.667 -210 47l23 112c61.333 -30.667 122 -46 182 -46c43.333 0 75.666 10.167 96.999 30.5s32 51.166 32 92.499v88c-16 -24.667 -38.333 -45.167 -67 -61.5
s-60.334 -24.5 -95.001 -24.5c-44 0 -83 10.5 -117 31.5s-60.667 50.667 -80 89s-29 82.5 -29 132.5s9.66699 94.167 29 132.5s46 68 80 89s73 31.5 117 31.5c35.333 0 67.333 -7.66699 96 -23s50.667 -36 66 -62v72h150zM392.502 165.501
c21 24.333 31.5 58.168 31.5 101.501c0 42.667 -10.333 76.167 -31 100.5s-49.667 36.5 -87 36.5s-66.666 -12.167 -87.999 -36.5s-32 -57.833 -32 -100.5s10.667 -76.334 32 -101.001s50.666 -37 87.999 -37c36.667 0 65.5 12.167 86.5 36.5zM376.002 778.003h118
l-131 -206h-91l-131 206h118l59 -118z" />
    <glyph glyph-name="uni01EA" unicode="&#x1ea;" horiz-adv-x="795" 
d="M445 -66c0 -17.333 5.1709 -30.668 15.5039 -40.001s25.166 -14 44.499 -14c18 0 36.667 4.33301 56 13l17 -71c-30.667 -14 -64.334 -21 -101.001 -21c-38 0 -69 10.333 -93 31s-36 47.334 -36 80.001c0 29.333 10 55.666 30 78.999
c-66.667 2.66699 -124.667 19.334 -174 50.001s-87.333 73 -114 127s-40 117 -40 189c0 74 14.167 138.333 42.5 193s68.666 96.834 120.999 126.501s113.833 44.5 184.5 44.5s132 -14.833 184 -44.5s92 -71.834 120 -126.501s42 -119 42 -193
c0 -90 -20.333 -165.667 -61 -227s-98.334 -103 -173.001 -125c-43.333 -13.333 -65 -37 -65 -71zM538.504 175.998c33.667 42 50.5 102.333 50.5 181s-16.833 138.667 -50.5 180s-80.5 62 -140.5 62s-106.833 -20.667 -140.5 -62s-50.5 -101.333 -50.5 -180
c0 -79.333 16.833 -139.833 50.5 -181.5s80.5 -62.5 140.5 -62.5s106.833 21 140.5 63z" />
    <glyph glyph-name="uni01EB" unicode="&#x1eb;" horiz-adv-x="604" 
d="M332 -68c0 -18 5.49902 -31.8291 16.499 -41.4961s26.5 -14.5 46.5 -14.5c18.667 0 37.334 4.66699 56.001 14l17 -72c-32.667 -14.667 -66.667 -22 -102 -22c-38.667 0 -70.167 10.667 -94.5 32s-36.5 48.666 -36.5 81.999c0 32.667 12 60.667 36 84
c-73.333 7.33301 -130.833 34.166 -172.5 80.499s-62.5 106.833 -62.5 181.5c0 53.333 10.833 100 32.5 140s52.667 70.667 93 92s87.5 32 141.5 32c53.333 0 100 -10.667 140 -32s70.833 -52 92.5 -92s32.5 -86.667 32.5 -140c0 -62.667 -14.833 -116.334 -44.5 -161.001
s-70.5 -74.334 -122.5 -89.001c-46 -12 -69 -36.667 -69 -74zM388.499 144.004c19.667 24.667 29.5 62 29.5 112c0 49.333 -9.83301 86.5 -29.5 111.5s-48.167 37.5 -85.5 37.5c-38 0 -67 -12.5 -87 -37.5s-30 -62.167 -30 -111.5c0 -99.333 39 -149 117 -149
c37.333 0 65.833 12.333 85.5 37z" />
    <glyph glyph-name="Aringacute" unicode="&#x1fa;" horiz-adv-x="759" 
d="M547 158h-333l-68 -158h-157l322 700c-12.667 10 -22.667 22.5 -30 37.5s-11 31.167 -11 48.5c0 30 10.667 55.5 32 76.5s47.333 31.5 78 31.5c17.333 0 32.666 -3.33301 45.999 -10l66 71h140l-151 -126c6 -12.667 9 -27 9 -43c0 -18 -3.66699 -34.5 -11 -49.5
s-17.666 -27.5 -30.999 -37.5l321 -699h-154zM348.5 818c-8.33301 -8.66699 -12.5 -19.334 -12.5 -32.001c0 -13.333 4.16699 -24.5 12.5 -33.5s18.833 -13.5 31.5 -13.5s23 4.5 31 13.5s12 20.167 12 33.5c0 12.667 -4 23.334 -12 32.001s-18.333 13 -31 13
s-23.167 -4.33301 -31.5 -13zM266 277h230l-115 267z" />
    <glyph glyph-name="aringacute" unicode="&#x1fb;" horiz-adv-x="630" 
d="M235.5 600.5c-21.667 21.667 -32.5 48.167 -32.5 79.5c0 30.667 10.833 56.5 32.5 77.5s48.167 31.5 79.5 31.5c16.667 0 32 -3 46 -9l72 102l132 -6l-148 -150c7.33301 -14.667 11 -30 11 -46c0 -31.333 -11 -57.833 -33 -79.5s-48.667 -32.5 -80 -32.5
s-57.833 10.833 -79.5 32.5zM283 713c-8.66699 -8.66699 -13 -19.667 -13 -33s4.33301 -24.833 13 -34.5s19.334 -14.5 32.001 -14.5s23.334 4.83301 32.001 14.5s13 21.167 13 34.5s-4.33301 24.333 -13 33s-19.334 13 -32.001 13s-23.334 -4.33301 -32.001 -13zM569 507
v-507h-149v75c-15.333 -26 -37 -46.333 -65 -61s-59.667 -22 -95 -22c-44 0 -82.833 10.667 -116.5 32s-60 51.833 -79 91.5s-28.5 85.5 -28.5 137.5s9.5 98.333 28.5 139s45.5 72.167 79.5 94.5s72.667 33.5 116 33.5c35.333 0 67 -7.66699 95 -23s49.667 -36 65 -62v72
h149zM390 145c20 25.333 30 62 30 110s-10 84.833 -30 110.5s-48.667 38.5 -86 38.5s-66.333 -13.333 -87 -40s-31 -63.667 -31 -111s10.167 -83.5 30.5 -108.5s49.5 -37.5 87.5 -37.5c37.333 0 66 12.667 86 38z" />
    <glyph glyph-name="AEacute" unicode="&#x1fc;" horiz-adv-x="1010" 
d="M973 590h-324l12 -167h291v-122h-283l13 -179h291v-122h-424l-11 158h-305l-94 -158h-170l448 712h556v-122zM530 277l-21 313h-20l-186 -313h227zM555 773h-93l103 157h140z" />
    <glyph glyph-name="aeacute" unicode="&#x1fd;" horiz-adv-x="866" 
d="M831 241l-328.005 0.000976562c1.33301 -42.667 13 -76 35 -100s55 -36 99 -36c24 0 48.667 4.33301 74 13s49.333 21.334 72 38.001l39 -102c-23.333 -19.333 -52.666 -34.5 -87.999 -45.5s-71 -16.5 -107 -16.5c-48 0 -89.667 8.66699 -125 26
s-63.333 42.666 -84 75.999c-15.333 -32.667 -38.166 -57.834 -68.499 -75.501s-66.166 -26.5 -107.499 -26.5c-38.667 0 -73.167 7 -103.5 21s-54.166 33.5 -71.499 58.5s-26 53.833 -26 86.5c0 55.333 21.667 95.5 65 120.5s115.333 37.5 216 37.5h37v4
c0 30.667 -6.5 52.667 -19.5 66s-34.167 20 -63.5 20c-28 0 -57.167 -4.5 -87.5 -13.5s-59.166 -21.833 -86.499 -38.5l-40 103c28 18 63 33 105 45s81 18 117 18c77.333 0 132.333 -22.333 165 -67c20.667 22 45 38.667 73 50s58.667 17 92 17
c42.667 0 80.5 -10.833 113.5 -32.5s58.5 -52 76.5 -91s27 -83.833 27 -134.5v-21zM507.995 316.001h194.001c-3.33301 32 -12.833 56.333 -28.5 73s-36.834 25 -63.501 25c-55.333 0 -89.333 -32.667 -102 -98zM333.496 128.501c17 21 25.5 47.833 25.5 80.5v34h-29
c-50.667 0 -87.167 -6.5 -109.5 -19.5s-33.5 -32.833 -33.5 -59.5c0 -20 7 -36.167 21 -48.5s32 -18.5 54 -18.5c30.667 0 54.5 10.5 71.5 31.5zM476.996 572.001h-93l99 206h148z" />
    <glyph glyph-name="Oslashacute" unicode="&#x1fe;" horiz-adv-x="795" 
d="M715 522c19.333 -48.667 29.002 -103.668 29.002 -165.001c0 -74 -14 -138.667 -42 -194s-68 -97.833 -120 -127.5s-113.333 -44.5 -184 -44.5c-48.667 0 -93 7 -133 21l-47 -80l-100 60l46 79c-36.667 32 -64.834 72.333 -84.501 121s-29.5 103.667 -29.5 165
c0 74 14.167 138.333 42.5 193s68.666 96.834 120.999 126.501s113.833 44.5 184.5 44.5c49.333 0 93.333 -7 132 -21l47 80l100 -60l-46 -78c36.667 -31.333 64.667 -71.333 84 -120zM240.002 201.999l225 386.001c-20.667 7.33301 -43 11 -67 11
c-60 0 -106.833 -20.667 -140.5 -62s-50.5 -101.333 -50.5 -180c0 -62.667 11 -114.334 33 -155.001zM538.502 176c33.667 42 50.499 102.332 50.499 180.999c0 62.667 -11 114.334 -33 155.001l-226 -388c20.667 -7.33301 43.334 -11 68.001 -11c60 0 106.833 21 140.5 63z
M443.001 772.999h-93l103 157h140z" />
    <glyph glyph-name="oslashacute" unicode="&#x1ff;" horiz-adv-x="604" 
d="M543.5 379c16.333 -36 24.5 -77 24.5 -123c0 -53.333 -10.833 -100 -32.5 -140s-52.5 -70.667 -92.5 -92s-86.667 -32 -140 -32c-34 0 -66.667 4.66699 -98 14l-41 -70l-71 42l38 66c-30.667 22.667 -54.167 52.167 -70.5 88.5s-24.5 77.5 -24.5 123.5
c0 53.333 10.833 100 32.5 140s52.667 70.667 93 92s87.5 32 141.5 32c34.667 0 67 -4.66699 97 -14l40 68l72 -42l-38 -64c30 -23.333 53.167 -53 69.5 -89zM201 163l139 239c-10.667 2.66699 -23 4 -37 4c-80 0 -120 -50 -120 -150c0 -38 6 -69 18 -93zM421 256
c0 36.667 -5.66699 67 -17 91l-138 -237c10 -2.66699 22.333 -4 37 -4c78.667 0 118 50 118 150zM349 572h-93l99 206h148z" />
    <glyph glyph-name="uni0200" unicode="&#x200;" horiz-adv-x="759" 
d="M615 0l-68 158h-333l-68 -158h-157l327 712h126l327 -712h-154zM266 277h230l-115 267zM271 773l-101 157h102l74 -157h-75zM411 773l-100 157h101l74 -157h-75z" />
    <glyph glyph-name="uni0201" unicode="&#x201;" horiz-adv-x="630" 
d="M569 507v-507h-149v75c-15.333 -26 -37 -46.333 -65 -61s-59.667 -22 -95 -22c-44 0 -82.833 10.667 -116.5 32s-60 51.833 -79 91.5s-28.5 85.5 -28.5 137.5s9.5 98.333 28.5 139s45.5 72.167 79.5 94.5s72.667 33.5 116 33.5c35.333 0 67 -7.66699 95 -23
s49.667 -36 65 -62v72h149zM390 145c20 25.333 30 62 30 110s-10 84.833 -30 110.5s-48.667 38.5 -86 38.5s-66.333 -13.333 -87 -40s-31 -63.667 -31 -111s10.167 -83.5 30.5 -108.5s49.5 -37.5 87.5 -37.5c37.333 0 66 12.667 86 38zM212 572l-78 206h109l34 -206h-65z
M352 572l-79 206h109l35 -206h-65z" />
    <glyph glyph-name="uni0202" unicode="&#x202;" horiz-adv-x="759" 
d="M615 0l-68 158h-333l-68 -158h-157l327 712h126l327 -712h-154zM266 277h230l-115 267zM491 893.5c31.333 -18.333 53.668 -45.5 67.001 -81.5l-70 -30c-21.333 33.333 -57.666 50 -108.999 50c-52 0 -88.667 -16.667 -110 -50l-70 30
c13.333 36 35.666 63.167 66.999 81.5s69 27.5 113 27.5c43.333 0 80.666 -9.16699 111.999 -27.5z" />
    <glyph glyph-name="uni0203" unicode="&#x203;" horiz-adv-x="630" 
d="M569 507v-507h-149v75c-15.333 -26 -37 -46.333 -65 -61s-59.667 -22 -95 -22c-44 0 -82.833 10.667 -116.5 32s-60 51.833 -79 91.5s-28.5 85.5 -28.5 137.5s9.5 98.333 28.5 139s45.5 72.167 79.5 94.5s72.667 33.5 116 33.5c35.333 0 67 -7.66699 95 -23
s49.667 -36 65 -62v72h149zM390 145c20 25.333 30 62 30 110s-10 84.833 -30 110.5s-48.667 38.5 -86 38.5s-66.333 -13.333 -87 -40s-31 -63.667 -31 -111s10.167 -83.5 30.5 -108.5s49.5 -37.5 87.5 -37.5c37.333 0 66 12.667 86 38zM432 728
c34.667 -24.667 57.667 -60.667 69 -108l-69 -29c-30 53.333 -69 80 -117 80c-48.667 0 -88 -26.667 -118 -80l-69 29c11.333 47.333 34.333 83.333 69 108s74 37 118 37c43.333 0 82.333 -12.333 117 -37z" />
    <glyph glyph-name="uni0204" unicode="&#x204;" horiz-adv-x="599" 
d="M71 0v712h491v-121h-339v-168h318v-122h-318v-180h339v-121h-491zM225 773l-101 157h102l74 -157h-75zM365 773l-100 157h101l74 -157h-75z" />
    <glyph glyph-name="uni0205" unicode="&#x205;" horiz-adv-x="550" 
d="M516 241l-333.999 0.000976562c2.66699 -47.333 15 -81.833 37 -103.5s54.667 -32.5 98 -32.5c26 0 52 4.33301 78 13s50 21.334 72 38.001l40 -102c-24 -19.333 -53.833 -34.5 -89.5 -45.5s-71.5 -16.5 -107.5 -16.5c-85.333 0 -152.333 23.5 -201 70.5
s-73 111.167 -73 192.5c0 51.333 10.5 97.166 31.5 137.499s50.5 71.666 88.5 93.999s81 33.5 129 33.5c71.333 0 127.666 -23.167 168.999 -69.5s62 -108.833 62 -187.5v-22zM219.501 389.001c-17.667 -16.667 -29.166 -41 -34.499 -73h201c-8 65.333 -40.333 98 -97 98
c-28.667 0 -51.834 -8.33301 -69.501 -25zM182.002 572.001l-78 206h109l34 -206h-65zM322.002 572.001l-79 206h109l35 -206h-65z" />
    <glyph glyph-name="uni0206" unicode="&#x206;" horiz-adv-x="599" 
d="M71 0v712h491v-121h-339v-168h318v-122h-318v-180h339v-121h-491zM445 893.5c31.333 -18.333 53.668 -45.5 67.001 -81.5l-70 -30c-21.333 33.333 -57.666 50 -108.999 50c-52 0 -88.667 -16.667 -110 -50l-70 30c13.333 36 35.666 63.167 66.999 81.5s69 27.5 113 27.5
c43.333 0 80.666 -9.16699 111.999 -27.5z" />
    <glyph glyph-name="uni0207" unicode="&#x207;" horiz-adv-x="550" 
d="M516 241l-333.999 0.000976562c2.66699 -47.333 15 -81.833 37 -103.5s54.667 -32.5 98 -32.5c26 0 52 4.33301 78 13s50 21.334 72 38.001l40 -102c-24 -19.333 -53.833 -34.5 -89.5 -45.5s-71.5 -16.5 -107.5 -16.5c-85.333 0 -152.333 23.5 -201 70.5
s-73 111.167 -73 192.5c0 51.333 10.5 97.166 31.5 137.499s50.5 71.666 88.5 93.999s81 33.5 129 33.5c71.333 0 127.666 -23.167 168.999 -69.5s62 -108.833 62 -187.5v-22zM219.501 389.001c-17.667 -16.667 -29.166 -41 -34.499 -73h201c-8 65.333 -40.333 98 -97 98
c-28.667 0 -51.834 -8.33301 -69.501 -25zM402.002 728.001c34.667 -24.667 57.667 -60.667 69 -108l-69 -29c-30 53.333 -69 80 -117 80c-48.667 0 -88 -26.667 -118 -80l-69 29c11.333 47.333 34.333 83.333 69 108s74 37 118 37c43.333 0 82.333 -12.333 117 -37z" />
    <glyph glyph-name="uni0208" unicode="&#x208;" horiz-adv-x="299" 
d="M71 0v712h156v-712h-156zM40 773l-101 157h102l74 -157h-75zM180 773l-100 157h101l74 -157h-75z" />
    <glyph glyph-name="uni0209" unicode="&#x209;" horiz-adv-x="274" 
d="M61 0v507h151v-507h-151zM34 572l-78 206h109l34 -206h-65zM174 572l-79 206h109l35 -206h-65z" />
    <glyph glyph-name="uni020A" unicode="&#x20a;" horiz-adv-x="299" 
d="M71 0v712h156v-712h-156zM260 893.5c31.333 -18.333 53.668 -45.5 67.001 -81.5l-70 -30c-21.333 33.333 -57.666 50 -108.999 50c-52 0 -88.667 -16.667 -110 -50l-70 30c13.333 36 35.666 63.167 66.999 81.5s69 27.5 113 27.5c43.333 0 80.666 -9.16699 111.999 -27.5
z" />
    <glyph glyph-name="uni020B" unicode="&#x20b;" horiz-adv-x="274" 
d="M61 0v507h151v-507h-151zM254 728c34.667 -24.667 57.667 -60.667 69 -108l-69 -29c-30 53.333 -69 80 -117 80c-48.667 0 -88 -26.667 -118 -80l-69 29c11.333 47.333 34.333 83.333 69 108s74 37 118 37c43.333 0 82.333 -12.333 117 -37z" />
    <glyph glyph-name="uni020C" unicode="&#x20c;" horiz-adv-x="795" 
d="M213.5 35.5c-52.333 29.667 -92.666 72.167 -120.999 127.5s-42.5 120 -42.5 194s14.167 138.333 42.5 193s68.666 96.834 120.999 126.501s113.833 44.5 184.5 44.5s132 -14.833 184 -44.5s92 -71.834 120 -126.501s42 -119 42 -193s-14 -138.667 -42 -194
s-68 -97.833 -120 -127.5s-113.333 -44.5 -184 -44.5s-132.167 14.833 -184.5 44.5zM538.5 176c33.667 42 50.5 102.333 50.5 181s-16.833 138.667 -50.5 180s-80.5 62 -140.5 62s-106.833 -20.667 -140.5 -62s-50.5 -101.333 -50.5 -180
c0 -79.333 16.833 -139.833 50.5 -181.5s80.5 -62.5 140.5 -62.5s106.833 21 140.5 63zM289 773l-101 157h102l74 -157h-75zM429 773l-100 157h101l74 -157h-75z" />
    <glyph glyph-name="uni020D" unicode="&#x20d;" horiz-adv-x="604" 
d="M161.5 24c-40.333 21.333 -71.333 52 -93 92s-32.5 86.667 -32.5 140s10.833 100 32.5 140s52.667 70.667 93 92s87.5 32 141.5 32c53.333 0 100 -10.667 140 -32s70.833 -52 92.5 -92s32.5 -86.667 32.5 -140s-10.833 -100 -32.5 -140s-52.5 -70.667 -92.5 -92
s-86.667 -32 -140 -32c-54 0 -101.167 10.667 -141.5 32zM388.5 144c19.667 24.667 29.5 62 29.5 112c0 49.333 -9.83301 86.5 -29.5 111.5s-48.167 37.5 -85.5 37.5c-38 0 -67 -12.5 -87 -37.5s-30 -62.167 -30 -111.5c0 -99.333 39 -149 117 -149
c37.333 0 65.833 12.333 85.5 37zM200 572l-78 206h109l34 -206h-65zM340 572l-79 206h109l35 -206h-65z" />
    <glyph glyph-name="uni020E" unicode="&#x20e;" horiz-adv-x="795" 
d="M213.5 35.5c-52.333 29.667 -92.666 72.167 -120.999 127.5s-42.5 120 -42.5 194s14.167 138.333 42.5 193s68.666 96.834 120.999 126.501s113.833 44.5 184.5 44.5s132 -14.833 184 -44.5s92 -71.834 120 -126.501s42 -119 42 -193s-14 -138.667 -42 -194
s-68 -97.833 -120 -127.5s-113.333 -44.5 -184 -44.5s-132.167 14.833 -184.5 44.5zM538.5 176c33.667 42 50.5 102.333 50.5 181s-16.833 138.667 -50.5 180s-80.5 62 -140.5 62s-106.833 -20.667 -140.5 -62s-50.5 -101.333 -50.5 -180
c0 -79.333 16.833 -139.833 50.5 -181.5s80.5 -62.5 140.5 -62.5s106.833 21 140.5 63zM509 893.5c31.333 -18.333 53.668 -45.5 67.001 -81.5l-70 -30c-21.333 33.333 -57.666 50 -108.999 50c-52 0 -88.667 -16.667 -110 -50l-70 30c13.333 36 35.666 63.167 66.999 81.5
s69 27.5 113 27.5c43.333 0 80.666 -9.16699 111.999 -27.5z" />
    <glyph glyph-name="uni020F" unicode="&#x20f;" horiz-adv-x="604" 
d="M161.5 24c-40.333 21.333 -71.333 52 -93 92s-32.5 86.667 -32.5 140s10.833 100 32.5 140s52.667 70.667 93 92s87.5 32 141.5 32c53.333 0 100 -10.667 140 -32s70.833 -52 92.5 -92s32.5 -86.667 32.5 -140s-10.833 -100 -32.5 -140s-52.5 -70.667 -92.5 -92
s-86.667 -32 -140 -32c-54 0 -101.167 10.667 -141.5 32zM388.5 144c19.667 24.667 29.5 62 29.5 112c0 49.333 -9.83301 86.5 -29.5 111.5s-48.167 37.5 -85.5 37.5c-38 0 -67 -12.5 -87 -37.5s-30 -62.167 -30 -111.5c0 -99.333 39 -149 117 -149
c37.333 0 65.833 12.333 85.5 37zM420 728c34.667 -24.667 57.667 -60.667 69 -108l-69 -29c-30 53.333 -69 80 -117 80c-48.667 0 -88 -26.667 -118 -80l-69 29c11.333 47.333 34.333 83.333 69 108s74 37 118 37c43.333 0 82.333 -12.333 117 -37z" />
    <glyph glyph-name="uni0210" unicode="&#x210;" horiz-adv-x="708" 
d="M672 0h-165.001l-91 237c-7.33301 18.667 -18.5 31.667 -33.5 39s-33.833 11 -56.5 11h-101v-287h-154v712h317c82.667 0 145.334 -18 188.001 -54s64 -87.667 64 -155c0 -47.333 -12.5 -88 -37.5 -122s-60.833 -58.333 -107.5 -73c42 -8.66699 72.333 -37.667 91 -87z
M364.999 406c44.667 0 77.334 7.5 98.001 22.5s31 38.5 31 70.5s-10.333 55.5 -31 70.5s-53.334 22.5 -98.001 22.5h-142v-186h142zM247.999 773l-101 157h102l74 -157h-75zM387.999 773l-100 157h101l74 -157h-75z" />
    <glyph glyph-name="uni0211" unicode="&#x211;" horiz-adv-x="410" 
d="M410 509l-0.999023 -137.999c-24.667 11.333 -49.334 17 -74.001 17c-40 0 -70.5 -10.833 -91.5 -32.5s-31.5 -51.834 -31.5 -90.501v-265h-151v362c0 54 -2.66699 102.333 -8 145h142l10 -87c12.667 32 32.5 56.5 59.5 73.5s57.5 25.5 91.5 25.5
c21.333 0 39.333 -3.33301 54 -10zM137.001 572.001l-78 206h109l34 -206h-65zM277.001 572.001l-79 206h109l35 -206h-65z" />
    <glyph glyph-name="uni0212" unicode="&#x212;" horiz-adv-x="708" 
d="M672 0h-165.001l-91 237c-7.33301 18.667 -18.5 31.667 -33.5 39s-33.833 11 -56.5 11h-101v-287h-154v712h317c82.667 0 145.334 -18 188.001 -54s64 -87.667 64 -155c0 -47.333 -12.5 -88 -37.5 -122s-60.833 -58.333 -107.5 -73c42 -8.66699 72.333 -37.667 91 -87z
M364.999 406c44.667 0 77.334 7.5 98.001 22.5s31 38.5 31 70.5s-10.333 55.5 -31 70.5s-53.334 22.5 -98.001 22.5h-142v-186h142zM467.999 893.5c31.333 -18.333 53.668 -45.5 67.001 -81.5l-70 -30c-21.333 33.333 -57.666 50 -108.999 50
c-52 0 -88.667 -16.667 -110 -50l-70 30c13.333 36 35.666 63.167 66.999 81.5s69 27.5 113 27.5c43.333 0 80.666 -9.16699 111.999 -27.5z" />
    <glyph glyph-name="uni0213" unicode="&#x213;" horiz-adv-x="410" 
d="M410 509l-0.999023 -137.999c-24.667 11.333 -49.334 17 -74.001 17c-40 0 -70.5 -10.833 -91.5 -32.5s-31.5 -51.834 -31.5 -90.501v-265h-151v362c0 54 -2.66699 102.333 -8 145h142l10 -87c12.667 32 32.5 56.5 59.5 73.5s57.5 25.5 91.5 25.5
c21.333 0 39.333 -3.33301 54 -10zM357.001 728.001c34.667 -24.667 57.667 -60.667 69 -108l-69 -29c-30 53.333 -69 80 -117 80c-48.667 0 -88 -26.667 -118 -80l-69 29c11.333 47.333 34.333 83.333 69 108s74 37 118 37c43.333 0 82.333 -12.333 117 -37z" />
    <glyph glyph-name="uni0214" unicode="&#x214;" horiz-adv-x="746" 
d="M145 68c-52 51.333 -78 126.668 -78 226.001v418h153v-425c0 -56.667 13.167 -99.834 39.5 -129.501s64.166 -44.5 113.499 -44.5s87 14.833 113 44.5s39 72.834 39 129.501v425h154v-418c0 -98.667 -26.167 -173.834 -78.5 -225.501s-128.166 -77.5 -227.499 -77.5
c-100 0 -176 25.667 -228 77zM265 773.002l-101 157h102l74 -157h-75zM405 773.002l-100 157h101l74 -157h-75z" />
    <glyph glyph-name="uni0215" unicode="&#x215;" horiz-adv-x="606" 
d="M545 507v-506.999h-147v74c-16 -26.667 -37 -47 -63 -61s-55.333 -21 -88 -21c-63.333 0 -110.666 17.667 -141.999 53s-47 88.666 -47 159.999v302h151v-305c0 -61.333 26.333 -92 79 -92c31.333 0 56.666 10.667 75.999 32s29 49.333 29 84v281h152zM200 572.001
l-78 206h109l34 -206h-65zM340 572.001l-79 206h109l35 -206h-65z" />
    <glyph glyph-name="uni0216" unicode="&#x216;" horiz-adv-x="746" 
d="M145 68c-52 51.333 -78 126.668 -78 226.001v418h153v-425c0 -56.667 13.167 -99.834 39.5 -129.501s64.166 -44.5 113.499 -44.5s87 14.833 113 44.5s39 72.834 39 129.501v425h154v-418c0 -98.667 -26.167 -173.834 -78.5 -225.501s-128.166 -77.5 -227.499 -77.5
c-100 0 -176 25.667 -228 77zM485 893.502c31.333 -18.333 53.668 -45.5 67.001 -81.5l-70 -30c-21.333 33.333 -57.666 50 -108.999 50c-52 0 -88.667 -16.667 -110 -50l-70 30c13.333 36 35.666 63.167 66.999 81.5s69 27.5 113 27.5
c43.333 0 80.666 -9.16699 111.999 -27.5z" />
    <glyph glyph-name="uni0217" unicode="&#x217;" horiz-adv-x="606" 
d="M545 507v-506.999h-147v74c-16 -26.667 -37 -47 -63 -61s-55.333 -21 -88 -21c-63.333 0 -110.666 17.667 -141.999 53s-47 88.666 -47 159.999v302h151v-305c0 -61.333 26.333 -92 79 -92c31.333 0 56.666 10.667 75.999 32s29 49.333 29 84v281h152zM420 728.001
c34.667 -24.667 57.667 -60.667 69 -108l-69 -29c-30 53.333 -69 80 -117 80c-48.667 0 -88 -26.667 -118 -80l-69 29c11.333 47.333 34.333 83.333 69 108s74 37 118 37c43.333 0 82.333 -12.333 117 -37z" />
    <glyph glyph-name="Scommaaccent" unicode="&#x218;" horiz-adv-x="657" 
d="M164.5 12.5c-49.667 14.333 -90.833 34.502 -123.5 60.502l50 112c68.667 -48 145.334 -72 230.001 -72c45.333 0 80.166 7.16699 104.499 21.5s36.5 34.5 36.5 60.5c0 22.667 -11.167 40.5 -33.5 53.5s-61.5 25.5 -117.5 37.5c-62.667 12.667 -112.5 28.167 -149.5 46.5
s-64 40.666 -81 66.999s-25.5 59.166 -25.5 98.499c0 42.667 11.833 81 35.5 115s56.834 60.5 99.501 79.5s92 28.5 148 28.5c50.667 0 99.334 -7.33301 146.001 -22s84 -34.667 112 -60l-50 -112c-62.667 48 -131.667 72 -207 72c-40 0 -72 -8 -96 -24s-36 -37.667 -36 -65
c0 -16 4.5 -29.333 13.5 -40s24.167 -20.167 45.5 -28.5s51.666 -16.5 90.999 -24.5c91.333 -20 157.166 -46 197.499 -78s60.5 -75.667 60.5 -131c0 -66.667 -26 -119.5 -78 -158.5s-124.333 -58.5 -217 -58.5c-54 0 -105.833 7.16699 -155.5 21.5zM401.001 -66.998
v-64.001c0 -31.333 -4.5 -58.666 -13.5 -81.999s-24.5 -45 -46.5 -65l-55 38c19.333 18 31 37.667 35 59h-70v114h150z" />
    <glyph glyph-name="scommaaccent" unicode="&#x219;" horiz-adv-x="503" 
d="M28 54l39.999 104.999c26.667 -19.333 56.334 -34.166 89.001 -44.499s66 -15.5 100 -15.5c26 0 46 4 60 12s21 19.667 21 35c0 12.667 -5 22.667 -15 30s-27.667 13.666 -53 18.999l-83 19c-48.667 10.667 -84.5 27.667 -107.5 51s-34.5 54.333 -34.5 93
c0 31.333 9.16699 59.333 27.5 84s43.833 43.834 76.5 57.501s70.334 20.5 113.001 20.5c36 0 71.333 -5.5 106 -16.5s65.667 -26.5 93 -46.5l-42 -101c-26 18 -52.5 31.667 -79.5 41s-53.167 14 -78.5 14c-24.667 0 -44 -4.33301 -58 -13s-21 -20.667 -21 -36
c0 -11.333 4.16699 -20.5 12.5 -27.5s23.166 -12.833 44.499 -17.5l85 -19c52 -12 89.667 -30 113 -54s35 -56 35 -96c0 -48 -19.333 -86 -58 -114s-91.667 -42 -159 -42c-96 0 -171.667 20.667 -227 62zM325.999 -67.001v-64.001c0 -31.333 -4.5 -58.666 -13.5 -81.999
s-24.5 -45 -46.5 -65l-55 38c19.333 18 31 37.667 35 59h-70v114h150z" />
    <glyph glyph-name="uni021A" unicode="&#x21a;" horiz-adv-x="628" 
d="M235 0v585h-223v127h604v-127h-223v-585h-158zM388 -67v-64.001c0 -31.333 -4.5 -58.666 -13.5 -81.999s-24.5 -45 -46.5 -65l-55 38c19.333 18 31 37.667 35 59h-70v114h150z" />
    <glyph glyph-name="uni021B" unicode="&#x21b;" horiz-adv-x="396" 
d="M251 394l-0.000976562 -197c0 -28 7.33301 -48.5 22 -61.5s33.667 -19.5 57 -19.5c14.667 0 31.334 2.33301 50.001 7v-117c-24 -9.33301 -53 -14 -87 -14c-62.667 0 -110.5 17.667 -143.5 53s-49.5 85 -49.5 149v200h-96v113h96v119l151 49v-168h129v-113h-129z
M323.999 -67v-64.001c0 -31.333 -4.5 -58.666 -13.5 -81.999s-24.5 -45 -46.5 -65l-55 38c19.333 18 31 37.667 35 59h-70v114h150z" />
    <glyph glyph-name="uni0227" unicode="&#x227;" horiz-adv-x="630" 
d="M569 507v-507h-149v75c-15.333 -26 -37 -46.333 -65 -61s-59.667 -22 -95 -22c-44 0 -82.833 10.667 -116.5 32s-60 51.833 -79 91.5s-28.5 85.5 -28.5 137.5s9.5 98.333 28.5 139s45.5 72.167 79.5 94.5s72.667 33.5 116 33.5c35.333 0 67 -7.66699 95 -23
s49.667 -36 65 -62v72h149zM390 145c20 25.333 30 62 30 110s-10 84.833 -30 110.5s-48.667 38.5 -86 38.5s-66.333 -13.333 -87 -40s-31 -63.667 -31 -111s10.167 -83.5 30.5 -108.5s49.5 -37.5 87.5 -37.5c37.333 0 66 12.667 86 38zM234 745h161v-142h-161v142z" />
    <glyph glyph-name="uni0228" unicode="&#x228;" horiz-adv-x="599" 
d="M223 591l0.00195312 -168h318v-122h-318v-180h339v-121h-199l-6 -41c3.33301 0.666992 7.66602 1 12.999 1c25.333 0 45.833 -6.33301 61.5 -19s23.5 -29.667 23.5 -51c0 -26.667 -12 -48.167 -36 -64.5s-57.667 -24.5 -101 -24.5c-14 0 -29.667 1.5 -47 4.5
s-33 7.5 -47 13.5l12 59c30.667 -9.33301 57 -14 79 -14c30.667 0 46 8.66699 46 26c0 6 -2.83301 10.833 -8.5 14.5s-13.834 5.5 -24.501 5.5c-8.66699 0 -20.667 -2.33301 -36 -7l-20 21l10 76h-211v712h491v-121h-339z" />
    <glyph glyph-name="uni022A" unicode="&#x22a;" horiz-adv-x="795" 
d="M213.5 35.5c-52.333 29.667 -92.666 72.167 -120.999 127.5s-42.5 120 -42.5 194s14.167 138.333 42.5 193s68.666 96.834 120.999 126.501s113.833 44.5 184.5 44.5s132 -14.833 184 -44.5s92 -71.834 120 -126.501s42 -119 42 -193s-14 -138.667 -42 -194
s-68 -97.833 -120 -127.5s-113.333 -44.5 -184 -44.5s-132.167 14.833 -184.5 44.5zM538.5 176c33.667 42 50.5 102.333 50.5 181s-16.833 138.667 -50.5 180s-80.5 62 -140.5 62s-106.833 -20.667 -140.5 -62s-50.5 -101.333 -50.5 -180
c0 -79.333 16.833 -139.833 50.5 -181.5s80.5 -62.5 140.5 -62.5s106.833 21 140.5 63zM231 918h139v-132h-139v132zM423 918h139v-132h-139v132zM239 966v94h315v-94h-315z" />
    <glyph glyph-name="uni022B" unicode="&#x22b;" horiz-adv-x="604" 
d="M161.5 24c-40.333 21.333 -71.333 52 -93 92s-32.5 86.667 -32.5 140s10.833 100 32.5 140s52.667 70.667 93 92s87.5 32 141.5 32c53.333 0 100 -10.667 140 -32s70.833 -52 92.5 -92s32.5 -86.667 32.5 -140s-10.833 -100 -32.5 -140s-52.5 -70.667 -92.5 -92
s-86.667 -32 -140 -32c-54 0 -101.167 10.667 -141.5 32zM388.5 144c19.667 24.667 29.5 62 29.5 112c0 49.333 -9.83301 86.5 -29.5 111.5s-48.167 37.5 -85.5 37.5c-38 0 -67 -12.5 -87 -37.5s-30 -62.167 -30 -111.5c0 -99.333 39 -149 117 -149
c37.333 0 65.833 12.333 85.5 37zM137 740h139v-132h-139v132zM329 740h139v-132h-139v132zM145 818v94h315v-94h-315z" />
    <glyph glyph-name="uni022C" unicode="&#x22c;" horiz-adv-x="795" 
d="M213.5 35.5c-52.333 29.667 -92.666 72.167 -120.999 127.5s-42.5 120 -42.5 194s14.167 138.333 42.5 193s68.666 96.834 120.999 126.501s113.833 44.5 184.5 44.5s132 -14.833 184 -44.5s92 -71.834 120 -126.501s42 -119 42 -193s-14 -138.667 -42 -194
s-68 -97.833 -120 -127.5s-113.333 -44.5 -184 -44.5s-132.167 14.833 -184.5 44.5zM538.5 176c33.667 42 50.5 102.333 50.5 181s-16.833 138.667 -50.5 180s-80.5 62 -140.5 62s-106.833 -20.667 -140.5 -62s-50.5 -101.333 -50.5 -180
c0 -79.333 16.833 -139.833 50.5 -181.5s80.5 -62.5 140.5 -62.5s106.833 21 140.5 63zM251.5 890c20.333 24.667 46.5 37 78.5 37c12.667 0 25.167 -2.66699 37.5 -8s25.5 -12.666 39.5 -21.999c14.667 -8 25.834 -13.833 33.501 -17.5s15.5 -5.5 23.5 -5.5
c12.667 0 22.834 4.5 30.501 13.5s12.167 21.167 13.5 36.5h64c0 -48.667 -10.167 -85.334 -30.5 -110.001s-46.5 -37 -78.5 -37c-12.667 0 -25.167 2.66699 -37.5 8s-25.5 12.666 -39.5 21.999c-14.667 8 -25.834 13.833 -33.501 17.5s-15.5 5.5 -23.5 5.5
c-12.667 0 -22.834 -4.5 -30.501 -13.5s-12.167 -21.167 -13.5 -36.5h-64c0 48.667 10.167 85.334 30.5 110.001zM239 966v94h315v-94h-315z" />
    <glyph glyph-name="uni022D" unicode="&#x22d;" horiz-adv-x="604" 
d="M161.5 24c-40.333 21.333 -71.333 52 -93 92s-32.5 86.667 -32.5 140s10.833 100 32.5 140s52.667 70.667 93 92s87.5 32 141.5 32c53.333 0 100 -10.667 140 -32s70.833 -52 92.5 -92s32.5 -86.667 32.5 -140s-10.833 -100 -32.5 -140s-52.5 -70.667 -92.5 -92
s-86.667 -32 -140 -32c-54 0 -101.167 10.667 -141.5 32zM388.5 144c19.667 24.667 29.5 62 29.5 112c0 49.333 -9.83301 86.5 -29.5 111.5s-48.167 37.5 -85.5 37.5c-38 0 -67 -12.5 -87 -37.5s-30 -62.167 -30 -111.5c0 -99.333 39 -149 117 -149
c37.333 0 65.833 12.333 85.5 37zM157.5 713.5c20.333 24.333 46.5 36.5 78.5 36.5c12.667 0 24.834 -2.5 36.501 -7.5s25.167 -12.167 40.5 -21.5c14.667 -8 25.834 -13.833 33.501 -17.5s15.5 -5.5 23.5 -5.5c12.667 0 22.834 4.33301 30.501 13s12.167 20.667 13.5 36h64
c0 -48 -10.167 -84.333 -30.5 -109s-46.5 -37 -78.5 -37c-12.667 0 -24.834 2.5 -36.501 7.5s-25.167 12.167 -40.5 21.5c-14.667 8 -25.834 13.833 -33.501 17.5s-15.5 5.5 -23.5 5.5c-12.667 0 -22.834 -4.33301 -30.501 -13s-12.167 -20.667 -13.5 -36h-64
c0 48.667 10.167 85.167 30.5 109.5zM145 818v94h315v-94h-315z" />
    <glyph glyph-name="uni0230" unicode="&#x230;" horiz-adv-x="795" 
d="M213.5 35.5c-52.333 29.667 -92.666 72.167 -120.999 127.5s-42.5 120 -42.5 194s14.167 138.333 42.5 193s68.666 96.834 120.999 126.501s113.833 44.5 184.5 44.5s132 -14.833 184 -44.5s92 -71.834 120 -126.501s42 -119 42 -193s-14 -138.667 -42 -194
s-68 -97.833 -120 -127.5s-113.333 -44.5 -184 -44.5s-132.167 14.833 -184.5 44.5zM538.5 176c33.667 42 50.5 102.333 50.5 181s-16.833 138.667 -50.5 180s-80.5 62 -140.5 62s-106.833 -20.667 -140.5 -62s-50.5 -101.333 -50.5 -180
c0 -79.333 16.833 -139.833 50.5 -181.5s80.5 -62.5 140.5 -62.5s106.833 21 140.5 63zM316 923h161v-142h-161v142zM239 966v94h315v-94h-315z" />
    <glyph glyph-name="uni0231" unicode="&#x231;" horiz-adv-x="604" 
d="M161.5 24c-40.333 21.333 -71.333 52 -93 92s-32.5 86.667 -32.5 140s10.833 100 32.5 140s52.667 70.667 93 92s87.5 32 141.5 32c53.333 0 100 -10.667 140 -32s70.833 -52 92.5 -92s32.5 -86.667 32.5 -140s-10.833 -100 -32.5 -140s-52.5 -70.667 -92.5 -92
s-86.667 -32 -140 -32c-54 0 -101.167 10.667 -141.5 32zM388.5 144c19.667 24.667 29.5 62 29.5 112c0 49.333 -9.83301 86.5 -29.5 111.5s-48.167 37.5 -85.5 37.5c-38 0 -67 -12.5 -87 -37.5s-30 -62.167 -30 -111.5c0 -99.333 39 -149 117 -149
c37.333 0 65.833 12.333 85.5 37zM222 745h161v-142h-161v142zM145 818v94h315v-94h-315z" />
    <glyph glyph-name="uni0232" unicode="&#x232;" horiz-adv-x="642" 
d="M694 712l-295 -436v-276h-156v277l-294 435h177l194 -304l196 304h178zM162 804v94h315v-94h-315z" />
    <glyph glyph-name="uni0233" unicode="&#x233;" horiz-adv-x="550" 
d="M561 507l-234 -533.999c-28.667 -64.667 -64.834 -112.167 -108.501 -142.5s-97.167 -49.833 -160.5 -58.5l-35 116c46.667 10 81.834 22.667 105.501 38s42.167 37.666 55.5 66.999l15 33l-209 481h158l130 -329l134 329h149zM117 626.001v94h315v-94h-315z" />
    <glyph glyph-name="uni0237" unicode="&#x237;" horiz-adv-x="274" 
d="M-16 -100c22.667 0 41.1689 6.66699 55.502 20s21.5 34 21.5 62v525h151v-529c0 -64 -16.333 -113.667 -49 -149s-80 -53 -142 -53c-34.667 0 -63.334 4.33301 -86.001 13v118c19.333 -4.66699 35.666 -7 48.999 -7z" />
    <glyph glyph-name="uni0259" unicode="&#x259;" horiz-adv-x="550" 
d="M389.5 487.5c39.667 -21.667 70.3301 -52.333 91.9971 -92s32.5 -86.167 32.5 -139.5c0 -52 -10.167 -98 -30.5 -138s-48.666 -71 -84.999 -93s-78.166 -33 -125.499 -33c-74 0 -132.167 22.667 -174.5 68s-63.5 107.666 -63.5 186.999v24h336
c-3.33301 46.667 -15.5 80.834 -36.5 102.501s-52.167 32.5 -93.5 32.5c-46.667 0 -99 -17 -157 -51l-41 101c26 20 57.333 35.667 94 47s74.667 17 114 17c52.667 0 98.834 -10.833 138.501 -32.5zM334.996 121.001c17.333 16.667 28.667 41 34 73h-201
c8 -65.333 41 -98 99 -98c28 0 50.667 8.33301 68 25z" />
    <glyph glyph-name="uni02BB" unicode="&#x2bb;" horiz-adv-x="300" 
d="M226 704l0.000976562 -114h-150v64c0 31.333 4.5 58.833 13.5 82.5s24.5 45.167 46.5 64.5l55 -37c-18.667 -18 -30.334 -38 -35.001 -60h70z" />
    <glyph glyph-name="uni02BC" unicode="&#x2bc;" horiz-adv-x="300" 
d="M224 767v-65c0 -31.333 -4.5 -58.666 -13.5 -81.999s-24.5 -45 -46.5 -65l-55 39c19.333 17.333 31 36.666 35 57.999h-70v115h150z" />
    <glyph glyph-name="uni02BE" unicode="&#x2be;" horiz-adv-x="300" 
d="M230 741.5c21.333 -21 32 -46.501 32 -76.501c0 -30.667 -10.667 -56.5 -32 -77.5s-47.333 -31.5 -78 -31.5v62c12.667 0 23 4.5 31 13.5s12 20.167 12 33.5c0 12.667 -4 23.334 -12 32.001s-18.333 13 -31 13v63c30.667 0 56.667 -10.5 78 -31.5z" />
    <glyph glyph-name="uni02BF" unicode="&#x2bf;" horiz-adv-x="300" 
d="M152 710c-12.667 0 -23.1689 -4.33203 -31.502 -12.999s-12.5 -19.334 -12.5 -32.001c0 -13.333 4.16699 -24.5 12.5 -33.5s18.833 -13.5 31.5 -13.5v-62c-31.333 0 -57.666 10.5 -78.999 31.5s-32 46.833 -32 77.5c0 30 10.833 55.5 32.5 76.5s47.834 31.5 78.501 31.5
v-63z" />
    <glyph glyph-name="circumflex" unicode="&#x2c6;" horiz-adv-x="300" 
d="M93 561h-118l131 206h91l131 -206h-118l-58 117z" />
    <glyph glyph-name="caron" unicode="&#x2c7;" horiz-adv-x="300" 
d="M210 767h118l-131 -206h-91l-131 206h118l59 -118z" />
    <glyph glyph-name="uni02C8" unicode="&#x2c8;" horiz-adv-x="300" 
d="M104 561v206h95v-206h-95z" />
    <glyph glyph-name="uni02C9" unicode="&#x2c9;" horiz-adv-x="300" 
d="M-6 615v94h315v-94h-315z" />
    <glyph glyph-name="uni02CA" unicode="&#x2ca;" horiz-adv-x="300" 
d="M198 561h-93l99 206h148z" />
    <glyph glyph-name="uni02CB" unicode="&#x2cb;" horiz-adv-x="300" 
d="M105 561l-154 206h148l99 -206h-93z" />
    <glyph glyph-name="uni02CC" unicode="&#x2cc;" horiz-adv-x="300" 
d="M104 -273v207h95v-207h-95z" />
    <glyph glyph-name="breve" unicode="&#x2d8;" horiz-adv-x="300" 
d="M34 620c-34.667 24.667 -57.667 61 -69 109l69 30c29.333 -54 68.666 -81 117.999 -81c48.667 0 87.667 27 117 81l69 -30c-11.333 -47.333 -34.166 -83.5 -68.499 -108.5s-73.5 -37.5 -117.5 -37.5s-83.333 12.333 -118 37z" />
    <glyph glyph-name="dotaccent" unicode="&#x2d9;" horiz-adv-x="300" 
d="M71 734h161v-142h-161v142z" />
    <glyph glyph-name="ring" unicode="&#x2da;" horiz-adv-x="300" 
d="M73 587.5c-21.333 21 -32.002 46.833 -32.002 77.5c0 30 10.833 55.5 32.5 76.5s47.834 31.5 78.501 31.5s56.667 -10.5 78 -31.5s32 -46.5 32 -76.5c0 -30.667 -10.667 -56.5 -32 -77.5s-47.333 -31.5 -78 -31.5c-31.333 0 -57.666 10.5 -78.999 31.5zM182.998 631.5
c8 9 12 20.167 12 33.5c0 12.667 -4 23.334 -12 32.001s-18.333 13 -31 13s-23.167 -4.33301 -31.5 -13s-12.5 -19.334 -12.5 -32.001c0 -13.333 4.16699 -24.5 12.5 -33.5s18.833 -13.5 31.5 -13.5s23 4.5 31 13.5z" />
    <glyph glyph-name="ogonek" unicode="&#x2db;" horiz-adv-x="300" 
d="M20 -168.5c-24 20.333 -36.002 47.166 -36.002 80.499c0 34.667 12.833 64.167 38.5 88.5s62.834 39.5 111.501 45.5l18 -36c-47.333 -13.333 -71 -38.666 -71 -75.999c0 -36 19.667 -54 59 -54c18.667 0 37 4.33301 55 13l17 -71c-31.333 -14 -64.666 -21 -99.999 -21
c-37.333 0 -68 10.167 -92 30.5z" />
    <glyph glyph-name="tilde" unicode="&#x2dc;" horiz-adv-x="300" 
d="M6.5 702.5c20.333 24.333 46.5 36.5 78.5 36.5c12.667 0 24.834 -2.5 36.501 -7.5s25.167 -12.167 40.5 -21.5c14.667 -8 25.834 -13.833 33.501 -17.5s15.5 -5.5 23.5 -5.5c12.667 0 22.834 4.33301 30.501 13s12.167 20.667 13.5 36h64
c0 -48 -10.167 -84.333 -30.5 -109s-46.5 -37 -78.5 -37c-12.667 0 -24.834 2.5 -36.501 7.5s-25.167 12.167 -40.5 21.5c-14.667 8 -25.834 13.833 -33.501 17.5s-15.5 5.5 -23.5 5.5c-12.667 0 -22.834 -4.33301 -30.501 -13s-12.167 -20.667 -13.5 -36h-64
c0 48.667 10.167 85.167 30.5 109.5z" />
    <glyph glyph-name="hungarumlaut" unicode="&#x2dd;" horiz-adv-x="300" 
d="M114 561h-65l35 206h109zM254 561h-65l34 206h109z" />
    <glyph glyph-name="gravecomb" unicode="&#x300;" 
d="M-195 561l-154 206h148l99 -206h-93z" />
    <glyph glyph-name="acutecomb" unicode="&#x301;" 
d="M-102 561h-93l99 206h148z" />
    <glyph glyph-name="uni0302" unicode="&#x302;" 
d="M-207 561h-118l131 206h91l131 -206h-118l-58 117z" />
    <glyph glyph-name="tildecomb" unicode="&#x303;" 
d="M-293.5 702.5c20.333 24.333 46.5 36.5 78.5 36.5c12.667 0 24.834 -2.5 36.501 -7.5s25.167 -12.167 40.5 -21.5c14.667 -8 25.834 -13.833 33.501 -17.5s15.5 -5.5 23.5 -5.5c12.667 0 22.834 4.33301 30.501 13s12.167 20.667 13.5 36h64
c0 -48 -10.167 -84.333 -30.5 -109s-46.5 -37 -78.5 -37c-12.667 0 -24.834 2.5 -36.501 7.5s-25.167 12.167 -40.5 21.5c-14.667 8 -25.834 13.833 -33.501 17.5s-15.5 5.5 -23.5 5.5c-12.667 0 -22.834 -4.33301 -30.501 -13s-12.167 -20.667 -13.5 -36h-64
c0 48.667 10.167 85.167 30.5 109.5z" />
    <glyph glyph-name="uni0304" unicode="&#x304;" 
d="M-306 615v94h315v-94h-315z" />
    <glyph glyph-name="uni0306" unicode="&#x306;" 
d="M-266 620c-34.667 24.667 -57.667 61 -69 109l69 30c29.333 -54 68.666 -81 117.999 -81c48.667 0 87.667 27 117 81l69 -30c-11.333 -47.333 -34.166 -83.5 -68.499 -108.5s-73.5 -37.5 -117.5 -37.5s-83.333 12.333 -118 37z" />
    <glyph glyph-name="uni0307" unicode="&#x307;" 
d="M-229 734h161v-142h-161v142z" />
    <glyph glyph-name="uni0308" unicode="&#x308;" 
d="M-314 729h139v-132h-139v132zM-122 729h139v-132h-139v132z" />
    <glyph glyph-name="hookabovecomb" unicode="&#x309;" 
d="M-109 561l-76.002 0.000976562v25c0 14 3.33301 25.667 10 35s15.667 18.666 27 27.999c7.33301 6 12.833 11.333 16.5 16s5.5 9.66699 5.5 15c0 15.333 -11.333 23 -34 23c-16 0 -32.667 -3 -50 -9l-20 57c28 12.667 56.667 19 86 19
c36.667 0 65.334 -7.33301 86.001 -22s31 -32.667 31 -54c0 -16 -4.16699 -29 -12.5 -39s-20.166 -20.333 -35.499 -31c-11.333 -8 -19.833 -15.167 -25.5 -21.5s-8.5 -13.5 -8.5 -21.5v-20z" />
    <glyph glyph-name="uni030A" unicode="&#x30a;" 
d="M-227 587.5c-21.333 21 -32.002 46.833 -32.002 77.5c0 30 10.833 55.5 32.5 76.5s47.834 31.5 78.501 31.5s56.667 -10.5 78 -31.5s32 -46.5 32 -76.5c0 -30.667 -10.667 -56.5 -32 -77.5s-47.333 -31.5 -78 -31.5c-31.333 0 -57.666 10.5 -78.999 31.5zM-117.002 631.5
c8 9 12 20.167 12 33.5c0 12.667 -4 23.334 -12 32.001s-18.333 13 -31 13s-23.167 -4.33301 -31.5 -13s-12.5 -19.334 -12.5 -32.001c0 -13.333 4.16699 -24.5 12.5 -33.5s18.833 -13.5 31.5 -13.5s23 4.5 31 13.5z" />
    <glyph glyph-name="uni030B" unicode="&#x30b;" 
d="M-186 561h-65l35 206h109zM-46 561h-65l34 206h109z" />
    <glyph glyph-name="uni030C" unicode="&#x30c;" 
d="M-90 767h118l-131 -206h-91l-131 206h118l59 -118z" />
    <glyph glyph-name="uni030F" unicode="&#x30f;" 
d="M-251 561l-78 206h109l34 -206h-65zM-111 561l-79 206h109l35 -206h-65z" />
    <glyph glyph-name="uni0311" unicode="&#x311;" 
d="M-31 717c34.667 -24.667 57.667 -60.667 69 -108l-69 -29c-30 53.333 -69 80 -117 80c-48.667 0 -88 -26.667 -118 -80l-69 29c11.333 47.333 34.333 83.333 69 108s74 37 118 37c43.333 0 82.333 -12.333 117 -37z" />
    <glyph glyph-name="uni0312" unicode="&#x312;" 
d="M-74 704l0.000976562 -114h-150v64c0 31.333 4.5 58.833 13.5 82.5s24.5 45.167 46.5 64.5l55 -37c-18.667 -18 -30.334 -38 -35.001 -60h70z" />
    <glyph glyph-name="uni031B" unicode="&#x31b;" 
d="M-148 482l0.000976562 18.001c33.333 0 57 7.16699 71 21.5s21 41.166 21 80.499v20h131v-38c0 -42 -12.333 -77.5 -37 -106.5s-57.334 -45.833 -98.001 -50.5z" />
    <glyph glyph-name="dotbelowcomb" unicode="&#x323;" 
d="M-218 -68h139v-133h-139v133z" />
    <glyph glyph-name="uni0324" unicode="&#x324;" 
d="M-314 -68h139v-132h-139v132zM-122 -68h139v-132h-139v132z" />
    <glyph glyph-name="uni0326" unicode="&#x326;" 
d="M-74 -67v-64.001c0 -31.333 -4.5 -58.666 -13.5 -81.999s-24.5 -45 -46.5 -65l-55 38c19.333 18 31 37.667 35 59h-70v114h150z" />
    <glyph glyph-name="uni0327" unicode="&#x327;" 
d="M-49.5 -59c15.667 -12.667 23.502 -29.667 23.502 -51c0 -26.667 -12 -48.167 -36 -64.5s-57.667 -24.5 -101 -24.5c-14.667 0 -30.5 1.5 -47.5 4.5s-32.5 7.5 -46.5 13.5l12 59c30.667 -9.33301 57 -14 79 -14c30.667 0 46 8.66699 46 26c0 6 -2.83301 10.833 -8.5 14.5
s-13.834 5.5 -24.501 5.5c-8.66699 0 -20.667 -2.33301 -36 -7l-20 21l12 96h82l-9 -61c3.33301 0.666992 7.66602 1 12.999 1c25.333 0 45.833 -6.33301 61.5 -19z" />
    <glyph glyph-name="uni0328" unicode="&#x328;" 
d="M-280 -168.5c-24 20.333 -36.002 47.166 -36.002 80.499c0 34.667 12.833 64.167 38.5 88.5s62.834 39.5 111.501 45.5l18 -36c-47.333 -13.333 -71 -38.666 -71 -75.999c0 -36 19.667 -54 59 -54c18.667 0 37 4.33301 55 13l17 -71c-31.333 -14 -64.666 -21 -99.999 -21
c-37.333 0 -68 10.167 -92 30.5z" />
    <glyph glyph-name="uni032E" unicode="&#x32e;" 
d="M-266 -192c-34.667 24.667 -57.667 61 -69 109l69 29c29.333 -53.333 68.666 -80 117.999 -80c48.667 0 87.667 26.667 117 80l69 -29c-11.333 -47.333 -34.166 -83.5 -68.499 -108.5s-73.5 -37.5 -117.5 -37.5s-83.333 12.333 -118 37z" />
    <glyph glyph-name="uni0331" unicode="&#x331;" 
d="M-306 -179v88h315v-88h-315z" />
    <glyph glyph-name="uni0335" unicode="&#x335;" 
d="M-306 208v85h315v-85h-315z" />
    <glyph glyph-name="uni0394" unicode="&#x394;" horiz-adv-x="757" 
d="M440 712l286 -604v-108h-695v108l287 604h122zM380 546l-188 -418h375z" />
    <glyph glyph-name="Sigma" unicode="&#x3a3;" horiz-adv-x="611" 
d="M564 712v-125h-341l198 -274l-1 -95l-198 -275h342v-125h-519v113l240 334l-240 334v113h519z" />
    <glyph glyph-name="uni03A9" unicode="&#x3a9;" horiz-adv-x="819" 
d="M733 264.5c-26 -49 -64.333 -95.5 -115 -139.5h140v-125h-292v121c52 47.333 90 94 114 140s36 95.667 36 149c0 59.333 -18.167 105.666 -54.5 138.999s-86.833 50 -151.5 50s-115.167 -16.667 -151.5 -50s-54.5 -79.666 -54.5 -138.999c0 -53.333 12 -103 36 -149
s62.333 -92.667 115 -140v-121h-293v125h140c-51.333 44 -90 90.333 -116 139s-39 99 -39 151c0 61.333 15 115.166 45 161.499s72.5 82.166 127.5 107.499s118.5 38 190.5 38s135.333 -12.667 190 -38s97 -61.166 127 -107.499s45 -100.166 45 -161.499
c0 -51.333 -13 -101.5 -39 -150.5z" />
    <glyph glyph-name="uni03BC" unicode="&#x3bc;" horiz-adv-x="606" 
d="M545 507l0.000976562 -507h-147v74c-16 -26.667 -37 -47 -63 -61s-55.333 -21 -88 -21c-13.333 0 -26 1 -38 3v-211h-151v723h151v-305c0 -61.333 26.333 -92 79 -92c31.333 0 56.666 10.667 75.999 32s29 49.333 29 84v281h152z" />
    <glyph glyph-name="pi" unicode="&#x3c0;" horiz-adv-x="634" 
d="M627 100l-11 -108.999l-50 3c-56 3.33301 -100.333 12.666 -133 27.999s-56.5 38.5 -71.5 69.5s-22.5 71.833 -22.5 122.5v180h-82c-1.33301 -70 -7 -136 -17 -198s-27 -127.333 -51 -196l-155 -1c22 76 39 144.833 51 206.5s19.333 124.5 22 188.5h-103v113h593v-113
h-107v-206c0 -28 6.5 -48.333 19.5 -61s34.167 -20 63.5 -22z" />
    <glyph glyph-name="uni1E08" unicode="&#x1e08;" horiz-adv-x="685" 
d="M594 930l-150 -157h-93l103 157h140zM550 16c-38.667 -14 -79.6641 -22 -122.997 -24l-5 -33c3.33301 0.666992 7.66602 1 12.999 1c25.333 0 45.833 -6.33301 61.5 -19s23.5 -29.667 23.5 -51c0 -26.667 -12 -48.167 -36 -64.5s-57.667 -24.5 -101 -24.5
c-14.667 0 -30.5 1.5 -47.5 4.5s-32.5 7.5 -46.5 13.5l12 59c30.667 -9.33301 57 -14 79 -14c30.667 0 46 8.66699 46 26c0 6 -2.83301 10.833 -8.5 14.5s-13.834 5.5 -24.501 5.5c-8.66699 0 -20.667 -2.33301 -36 -7l-20 21l9 71c-60.667 8 -113.334 28 -158.001 60
s-78.834 73.833 -102.501 125.5s-35.5 110.5 -35.5 176.5c0 72.667 14.333 136.5 43 191.5s69.834 97.5 123.501 127.5s116.5 45 188.5 45c47.333 0 92.5 -7.16699 135.5 -21.5s78.167 -34.5 105.5 -60.5l-49 -112c-32 24 -63.167 41.5 -93.5 52.5
s-62.166 16.5 -95.499 16.5c-64 0 -113 -20.333 -147 -61s-51 -100 -51 -178c0 -78.667 17 -138.5 51 -179.5s83 -61.5 147 -61.5c33.333 0 65.166 5.5 95.499 16.5s61.5 28.5 93.5 52.5l49 -112c-25.333 -24 -57.333 -43 -96 -57z" />
    <glyph glyph-name="uni1E09" unicode="&#x1e09;" horiz-adv-x="509" 
d="M503 778l-154 -206h-93l99 206h148zM225.5 365.5c-23 -25 -34.5 -61.5 -34.5 -109.5c0 -48.667 11.333 -85.5 34 -110.5s55 -37.5 97 -37.5c22.667 0 46 4.5 70 13.5s46 21.5 66 37.5l40 -105c-20 -17.333 -45.5 -31.333 -76.5 -42s-63.833 -17 -98.5 -19l-5 -34
c3.33301 0.666992 7.66602 1 12.999 1c25.333 0 45.833 -6.33301 61.5 -19s23.5 -29.667 23.5 -51c0 -26.667 -12 -48.167 -36 -64.5s-57.667 -24.5 -101 -24.5c-14.667 0 -30.5 1.5 -47.5 4.5s-32.5 7.5 -46.5 13.5l12 59c30.667 -9.33301 57 -14 79 -14
c30.667 0 46 8.66699 46 26c0 6 -2.83301 10.833 -8.5 14.5s-13.834 5.5 -24.501 5.5c-8.66699 0 -20.667 -2.33301 -36 -7l-20 21l9 73c-64.667 10.667 -115.167 38.5 -151.5 83.5s-54.5 102.5 -54.5 172.5c0 52.667 11.333 99.167 34 139.5s54.5 71.666 95.5 93.999
s88.5 33.5 142.5 33.5c36.667 0 72.334 -5.66699 107.001 -17s62.334 -26.666 83.001 -45.999l-40 -105c-20 16 -42 28.5 -66 37.5s-47.333 13.5 -70 13.5c-41.333 0 -73.5 -12.5 -96.5 -37.5z" />
    <glyph glyph-name="uni1E0C" unicode="&#x1e0c;" horiz-adv-x="771" 
d="M71 712l275 -0.000976562c78 0 145 -14 201 -42s98.833 -68.667 128.5 -122s44.5 -117 44.5 -191c0 -74.667 -14.667 -138.667 -44 -192s-72 -94.166 -128 -122.499s-123.333 -42.5 -202 -42.5h-275v712zM336 125.999c152 0 228 77 228 231c0 152.667 -76 229 -228 229
h-109v-460h109zM315 -68.001h139v-133h-139v133z" />
    <glyph glyph-name="uni1E0D" unicode="&#x1e0d;" horiz-adv-x="630" 
d="M569 736v-736.001h-149v75c-15.333 -26 -37 -46.333 -65 -61s-59.667 -22 -95 -22c-43.333 0 -82 11.167 -116 33.5s-60.5 53.666 -79.5 93.999s-28.5 86.5 -28.5 138.5s9.5 97.833 28.5 137.5s45.333 70.334 79 92.001s72.5 32.5 116.5 32.5c34 0 65 -7.16699 93 -21.5
s49.667 -34.166 65 -59.499v297h151zM390 145.499c20 25.667 30 62.5 30 110.5c0 47.333 -10.167 83.833 -30.5 109.5s-48.833 38.5 -85.5 38.5c-37.333 0 -66.333 -12.667 -87 -38s-31 -61.333 -31 -108c0 -48 10.333 -85.167 31 -111.5s49.667 -39.5 87 -39.5
s66 12.833 86 38.5zM246 -68.001h139v-133h-139v133z" />
    <glyph glyph-name="uni1E0E" unicode="&#x1e0e;" horiz-adv-x="771" 
d="M71 712l275 -0.000976562c78 0 145 -14 201 -42s98.833 -68.667 128.5 -122s44.5 -117 44.5 -191c0 -74.667 -14.667 -138.667 -44 -192s-72 -94.166 -128 -122.499s-123.333 -42.5 -202 -42.5h-275v712zM336 125.999c152 0 228 77 228 231c0 152.667 -76 229 -228 229
h-109v-460h109zM227 -179.001v88h315v-88h-315z" />
    <glyph glyph-name="uni1E0F" unicode="&#x1e0f;" horiz-adv-x="630" 
d="M569 736v-736.001h-149v75c-15.333 -26 -37 -46.333 -65 -61s-59.667 -22 -95 -22c-43.333 0 -82 11.167 -116 33.5s-60.5 53.666 -79.5 93.999s-28.5 86.5 -28.5 138.5s9.5 97.833 28.5 137.5s45.333 70.334 79 92.001s72.5 32.5 116.5 32.5c34 0 65 -7.16699 93 -21.5
s49.667 -34.166 65 -59.499v297h151zM390 145.499c20 25.667 30 62.5 30 110.5c0 47.333 -10.167 83.833 -30.5 109.5s-48.833 38.5 -85.5 38.5c-37.333 0 -66.333 -12.667 -87 -38s-31 -61.333 -31 -108c0 -48 10.333 -85.167 31 -111.5s49.667 -39.5 87 -39.5
s66 12.833 86 38.5zM158 -179.001v88h315v-88h-315z" />
    <glyph glyph-name="uni1E14" unicode="&#x1e14;" horiz-adv-x="599" 
d="M71 0v712h491v-121h-339v-168h318v-122h-318v-180h339v-121h-491zM175 804v94h315v-94h-315zM286 935l-150 157h140l103 -157h-93z" />
    <glyph glyph-name="uni1E15" unicode="&#x1e15;" horiz-adv-x="550" 
d="M516 241l-333.999 0.000976562c2.66699 -47.333 15 -81.833 37 -103.5s54.667 -32.5 98 -32.5c26 0 52 4.33301 78 13s50 21.334 72 38.001l40 -102c-24 -19.333 -53.833 -34.5 -89.5 -45.5s-71.5 -16.5 -107.5 -16.5c-85.333 0 -152.333 23.5 -201 70.5
s-73 111.167 -73 192.5c0 51.333 10.5 97.166 31.5 137.499s50.5 71.666 88.5 93.999s81 33.5 129 33.5c71.333 0 127.666 -23.167 168.999 -69.5s62 -108.833 62 -187.5v-22zM219.501 389.001c-17.667 -16.667 -29.166 -41 -34.499 -73h201c-8 65.333 -40.333 98 -97 98
c-28.667 0 -51.834 -8.33301 -69.501 -25zM127.002 626.001v94h315v-94h-315zM238.002 764.001l-154 206h148l99 -206h-93z" />
    <glyph glyph-name="uni1E16" unicode="&#x1e16;" horiz-adv-x="599" 
d="M71 0v712h491v-121h-339v-168h318v-122h-318v-180h339v-121h-491zM175 804v94h315v-94h-315zM379 935h-93l103 157h140z" />
    <glyph glyph-name="uni1E17" unicode="&#x1e17;" horiz-adv-x="550" 
d="M516 241l-333.999 0.000976562c2.66699 -47.333 15 -81.833 37 -103.5s54.667 -32.5 98 -32.5c26 0 52 4.33301 78 13s50 21.334 72 38.001l40 -102c-24 -19.333 -53.833 -34.5 -89.5 -45.5s-71.5 -16.5 -107.5 -16.5c-85.333 0 -152.333 23.5 -201 70.5
s-73 111.167 -73 192.5c0 51.333 10.5 97.166 31.5 137.499s50.5 71.666 88.5 93.999s81 33.5 129 33.5c71.333 0 127.666 -23.167 168.999 -69.5s62 -108.833 62 -187.5v-22zM219.501 389.001c-17.667 -16.667 -29.166 -41 -34.499 -73h201c-8 65.333 -40.333 98 -97 98
c-28.667 0 -51.834 -8.33301 -69.501 -25zM127.002 626.001v94h315v-94h-315zM331.002 764.001h-93l99 206h148z" />
    <glyph glyph-name="uni1E1C" unicode="&#x1e1c;" horiz-adv-x="599" 
d="M220 810c-31.333 18.667 -53.668 46 -67.001 82l70 29c21.333 -32.667 58 -49 110 -49c51.333 0 87.666 16.333 108.999 49l70 -29c-13.333 -36 -35.666 -63.333 -66.999 -82s-68.666 -28 -111.999 -28c-44 0 -81.667 9.33301 -113 28zM222.998 591l0.00195312 -168h318
v-122h-318v-180h339v-121h-199l-6 -41c3.33301 0.666992 7.66602 1 12.999 1c25.333 0 45.833 -6.33301 61.5 -19s23.5 -29.667 23.5 -51c0 -26.667 -12 -48.167 -36 -64.5s-57.667 -24.5 -101 -24.5c-14 0 -29.667 1.5 -47 4.5s-33 7.5 -47 13.5l12 59
c30.667 -9.33301 57 -14 79 -14c30.667 0 46 8.66699 46 26c0 6 -2.83301 10.833 -8.5 14.5s-13.834 5.5 -24.501 5.5c-8.66699 0 -20.667 -2.33301 -36 -7l-20 21l10 76h-211v712h491v-121h-339z" />
    <glyph glyph-name="uni1E1D" unicode="&#x1e1d;" horiz-adv-x="550" 
d="M167 631c-34.667 24.667 -57.667 61 -69 109l69 30c29.333 -54 68.666 -81 117.999 -81c48.667 0 87.667 27 117 81l69 -30c-11.333 -47.333 -34.166 -83.5 -68.499 -108.5s-73.5 -37.5 -117.5 -37.5s-83.333 12.333 -118 37zM516 241l-333.998 0.00292969
c2.66699 -47.333 15 -81.833 37 -103.5s54.667 -32.5 98 -32.5c26 0 52 4.33301 78 13s50 21.334 72 38.001l40 -102c-21.333 -16.667 -47.166 -30.334 -77.499 -41.001s-61.833 -17.334 -94.5 -20.001l-5 -34c3.33301 0.666992 7.66602 1 12.999 1
c25.333 0 45.833 -6.33301 61.5 -19s23.5 -29.667 23.5 -51c0 -26.667 -12 -48.167 -36 -64.5s-57.667 -24.5 -101 -24.5c-14 0 -29.667 1.5 -47 4.5s-33 7.5 -47 13.5l12 59c30.667 -9.33301 57 -14 79 -14c30.667 0 46 8.66699 46 26c0 6 -2.83301 10.833 -8.5 14.5
s-13.834 5.5 -24.501 5.5c-8.66699 0 -20.667 -2.33301 -36 -7l-20 21l9 72c-68.667 10 -122.167 37.833 -160.5 83.5s-57.5 104.167 -57.5 175.5c0 51.333 10.5 97.166 31.5 137.499s50.5 71.666 88.5 93.999s81 33.5 129 33.5c71.333 0 127.666 -23.167 168.999 -69.5
s62 -108.833 62 -187.5v-22zM219.502 389.003c-17.667 -16.667 -29.166 -41 -34.499 -73h201c-8 65.333 -40.333 98 -97 98c-28.667 0 -51.834 -8.33301 -69.501 -25z" />
    <glyph glyph-name="uni1E20" unicode="&#x1e20;" horiz-adv-x="745" 
d="M682 393v-349.001c-34.667 -16.667 -75.167 -29.667 -121.5 -39s-93.833 -14 -142.5 -14c-75.333 0 -140.666 14.667 -195.999 44s-97.833 71.333 -127.5 126s-44.5 120 -44.5 196c0 74 14.833 138.333 44.5 193s71.667 96.834 126 126.501s117.833 44.5 190.5 44.5
c51.333 0 99.166 -7 143.499 -21s80.833 -33.667 109.5 -59l-50 -112c-33.333 24 -65.666 41.333 -96.999 52s-65.333 16 -102 16c-137.333 0 -206 -80 -206 -240c0 -163.333 71.667 -245 215 -245c39.333 0 78.666 5 117.999 15v157h-140v109h280zM253 803.999v94h315v-94
h-315z" />
    <glyph glyph-name="uni1E21" unicode="&#x1e21;" horiz-adv-x="634" 
d="M574 507l0.00195312 -483.999c0 -80.667 -23.333 -142 -70 -184s-114.667 -63 -204 -63c-80.667 0 -150.667 15.667 -210 47l23 112c61.333 -30.667 122 -46 182 -46c43.333 0 75.666 10.167 96.999 30.5s32 51.166 32 92.499v88c-16 -24.667 -38.333 -45.167 -67 -61.5
s-60.334 -24.5 -95.001 -24.5c-44 0 -83 10.5 -117 31.5s-60.667 50.667 -80 89s-29 82.5 -29 132.5s9.66699 94.167 29 132.5s46 68 80 89s73 31.5 117 31.5c35.333 0 67.333 -7.66699 96 -23s50.667 -36 66 -62v72h150zM392.502 165.501
c21 24.333 31.5 58.168 31.5 101.501c0 42.667 -10.333 76.167 -31 100.5s-49.667 36.5 -87 36.5s-66.666 -12.167 -87.999 -36.5s-32 -57.833 -32 -100.5s10.667 -76.334 32 -101.001s50.666 -37 87.999 -37c36.667 0 65.5 12.167 86.5 36.5zM160.002 626.003v94h315v-94
h-315z" />
    <glyph glyph-name="uni1E24" unicode="&#x1e24;" horiz-adv-x="779" 
d="M554 712h153v-712h-153v299h-330v-299h-153v712h153v-288h330v288zM319 -68h139v-133h-139v133z" />
    <glyph glyph-name="uni1E25" unicode="&#x1e25;" horiz-adv-x="613" 
d="M554 307v-306.999h-151v300c0 35.333 -6.5 61.166 -19.5 77.499s-33.5 24.5 -61.5 24.5c-33.333 0 -60 -10.667 -80 -32s-30 -50 -30 -86v-284h-151v736h151v-298c18 26.667 41 47 69 61s59 21 93 21c120 0 180 -71 180 -213zM238 -67.999h139v-133h-139v133z" />
    <glyph glyph-name="uni1E2A" unicode="&#x1e2a;" horiz-adv-x="779" 
d="M554 712h153v-712h-153v299h-330v-299h-153v712h153v-288h330v288zM271 -192c-34.667 24.667 -57.667 61 -69 109l69 29c29.333 -53.333 68.666 -80 117.999 -80c48.667 0 87.667 26.667 117 80l69 -29c-11.333 -47.333 -34.166 -83.5 -68.499 -108.5
s-73.5 -37.5 -117.5 -37.5s-83.333 12.333 -118 37z" />
    <glyph glyph-name="uni1E2B" unicode="&#x1e2b;" horiz-adv-x="613" 
d="M554 307v-306.999h-151v300c0 35.333 -6.5 61.166 -19.5 77.499s-33.5 24.5 -61.5 24.5c-33.333 0 -60 -10.667 -80 -32s-30 -50 -30 -86v-284h-151v736h151v-298c18 26.667 41 47 69 61s59 21 93 21c120 0 180 -71 180 -213zM190 -191.999
c-34.667 24.667 -57.667 61 -69 109l69 29c29.333 -53.333 68.666 -80 117.999 -80c48.667 0 87.667 26.667 117 80l69 -29c-11.333 -47.333 -34.166 -83.5 -68.499 -108.5s-73.5 -37.5 -117.5 -37.5s-83.333 12.333 -118 37z" />
    <glyph glyph-name="uni1E2E" unicode="&#x1e2e;" horiz-adv-x="299" 
d="M71 0v712h156v-712h-156zM-18 918h139v-132h-139v132zM174 918h139v-132h-139v132zM194 935h-93l103 157h140z" />
    <glyph glyph-name="uni1E2F" unicode="&#x1e2f;" horiz-adv-x="274" 
d="M61 0v507h151v-507h-151zM-29 740h139v-132h-139v132zM163 740h139v-132h-139v132zM183 764h-93l99 206h148z" />
    <glyph glyph-name="uni1E36" unicode="&#x1e36;" horiz-adv-x="569" 
d="M71 0v712h156v-585h318v-127h-474zM246 -68h139v-133h-139v133z" />
    <glyph glyph-name="uni1E37" unicode="&#x1e37;" horiz-adv-x="274" 
d="M61 0v736h151v-736h-151zM67 -68h139v-133h-139v133z" />
    <glyph glyph-name="uni1E3A" unicode="&#x1e3a;" horiz-adv-x="569" 
d="M71 0v712h156v-585h318v-127h-474zM158 -179v88h315v-88h-315z" />
    <glyph glyph-name="uni1E3B" unicode="&#x1e3b;" horiz-adv-x="274" 
d="M61 0v736h151v-736h-151zM-21 -179v88h315v-88h-315z" />
    <glyph glyph-name="uni1E42" unicode="&#x1e42;" horiz-adv-x="851" 
d="M655 712h123v-712h-138v389l-164 -389h-101l-165 384v-384h-137v712h124l230 -525zM355 -68h139v-133h-139v133z" />
    <glyph glyph-name="uni1E43" unicode="&#x1e43;" horiz-adv-x="911" 
d="M810.5 467.5c28.333 -35 42.5 -88.5 42.5 -160.5v-307h-151v302c0 35.333 -5.66699 60.833 -17 76.5s-30 23.5 -56 23.5c-30.667 0 -54.334 -10.667 -71.001 -32s-25 -51.333 -25 -90v-280h-151v302c0 34.667 -5.83301 60 -17.5 76s-30.167 24 -55.5 24
c-30.667 0 -54.5 -10.667 -71.5 -32s-25.5 -51.333 -25.5 -90v-280h-151v362c0 54 -2.66699 102.333 -8 145h142l9 -76c15.333 28.667 36.833 50.667 64.5 66s59.5 23 95.5 23c75.333 0 125.333 -31.333 150 -94c16.667 28.667 39.834 51.5 69.501 68.5
s62.167 25.5 97.5 25.5c58 0 101.167 -17.5 129.5 -52.5zM388 -68h139v-133h-139v133z" />
    <glyph glyph-name="uni1E44" unicode="&#x1e44;" horiz-adv-x="760" 
d="M541 712h147v-712h-116l-355 454v-454h-146v712h115l355 -453v453zM298 923h161v-142h-161v142z" />
    <glyph glyph-name="uni1E45" unicode="&#x1e45;" horiz-adv-x="613" 
d="M554 307v-306.999h-151v300c0 35.333 -6.5 61.166 -19.5 77.499s-33.5 24.5 -61.5 24.5c-33.333 0 -60 -10.667 -80 -32s-30 -50 -30 -86v-284h-151v362c0 54 -2.66699 102.333 -8 145h142l10 -80c18 30 41.5 53 70.5 69s61.833 24 98.5 24c120 0 180 -71 180 -213z
M227 745.001h161v-142h-161v142z" />
    <glyph glyph-name="uni1E46" unicode="&#x1e46;" horiz-adv-x="760" 
d="M541 712h147v-712h-116l-355 454v-454h-146v712h115l355 -453v453zM310 -68h139v-133h-139v133z" />
    <glyph glyph-name="uni1E47" unicode="&#x1e47;" horiz-adv-x="613" 
d="M554 307v-306.999h-151v300c0 35.333 -6.5 61.166 -19.5 77.499s-33.5 24.5 -61.5 24.5c-33.333 0 -60 -10.667 -80 -32s-30 -50 -30 -86v-284h-151v362c0 54 -2.66699 102.333 -8 145h142l10 -80c18 30 41.5 53 70.5 69s61.833 24 98.5 24c120 0 180 -71 180 -213z
M238 -67.999h139v-133h-139v133z" />
    <glyph glyph-name="uni1E48" unicode="&#x1e48;" horiz-adv-x="760" 
d="M541 712h147v-712h-116l-355 454v-454h-146v712h115l355 -453v453zM222 -179v88h315v-88h-315z" />
    </font>
</defs>
</svg>
